#VERSION:0.83;
#TITLE:Vs. Giratina;
#SUBTITLE:;
#ARTIST:Unknown artist;
#TITLETRANSLIT:;
#SUBTITLETRANSLIT:;
#ARTISTTRANSLIT:;
#GENRE:;
#ORIGIN:;
#CREDIT:;
#BANNER:Pokemon-Go-Giratina-Altered-vs-Origin-forme.png;
#BACKGROUND:deeaamf-26e35db8-0ebd-4d43-a592-9749a6b9a230.png;
#PREVIEWVID:;
#JACKET:;
#CDIMAGE:;
#DISCIMAGE:;
#LYRICSPATH:;
#CDTITLE:;
#MUSIC:Vs. Giratina.mp3;
#OFFSET:0.000000;
#SAMPLESTART:0.000000;
#SAMPLELENGTH:12.000000;
#SELECTABLE:YES;
#BPMS:0.000=132.500,
53.000=160.580;
#STOPS:;
#DELAYS:;
#WARPS:;
#TIMESIGNATURES:0.000=4=4;
#TICKCOUNTS:0.000=4;
#COMBOS:0.000=1;
#SPEEDS:0.000=1.000=0.000=0;
#SCROLLS:0.000=1.000;
#FAKES:;
#LABELS:0.000=Song Start;
#BGCHANGES:;
#KEYSOUNDS:;
#ATTACKS:
;

//---------------dance-single - ----------------
#NOTEDATA:;
#CHARTNAME:;
#STEPSTYPE:dance-single;
#DESCRIPTION:;
#CHARTSTYLE:;
#DIFFICULTY:Easy;
#METER:1;
#RADARVALUES:0.205943,0.278748,0.000000,0.045050,0.000000,128.000000,128.000000,0.000000,4.000000,0.000000,0.000000,0.000000,0.000000,0.000000,0.205943,0.278748,0.000000,0.045050,0.000000,128.000000,128.000000,0.000000,4.000000,0.000000,0.000000,0.000000,0.000000,0.000000;
#CREDIT:;
#NOTES:
0000
0000
1000
0000
,
0000
0010
0000
0000
,
1000
0000
0000
0010
,
0000
0000
1000
0000
,
0000
0100
0000
0001
,
0000
0000
0010
0000
,
0000
0100
0000
0000
,
1000
0000
0010
0000
,
0000
0100
0000
0000
,
1000
0000
0000
0010
,
0000
0000
1000
0000
,
0000
0000
0010
0000
0000
0000
0000
2000
,
0000
0000
0000
0000
,
3000
0000
0000
1000
,
0100
1000
1000
0010
,
0001
0010
0010
0000
,
1000
0010
1000
0000
,
0010
0000
0100
0010
,
0010
0000
0001
0100
,
0001
1000
1000
1000
,
0000
0010
0010
0010
,
0000
0001
0001
0010
,
0000
0010
0010
0000
,
1000
1000
0010
0000
,
0001
0010
0000
0010
,
0100
1000
0010
0100
,
0001
0000
0000
0000
,
0000
1000
1000
0100
,
0010
0010
0000
0000
,
1000
0000
0000
0010
,
0000
0000
0001
0000
,
0000
0000
0200
0000
,
0000
0300
1000
0000
,
0000
0010
0000
0000
,
1000
0000
0000
0000
,
0010
0000
0000
2000
,
0000
0000
3000
1000
,
1000
0001
0002
0000
,
0000
0003
0000
0000
,
0000
1000
0100
0100
,
0000
0010
0000
1000
,
0000
0100
0000
0100
,
0000
0010
0100
0001
,
0010
1000
0010
0100
,
0001
0001
0010
0001
,
0001
0010
1000
0100
,
1000
1000
0010
0100
,
0001
0010
0001
0010
,
1000
0010
0100
1000
,
0010
0100
1000
0010
,
0010
1000
0100
1000
,
1000
0010
0100
0001
,
0010
0100
0001
0010
,
0100
0100
0000
0000
,
0000
0000
0000
0000
,
1000
0000
0000
0000
;

//---------------dance-single - ----------------
#NOTEDATA:;
#CHARTNAME:;
#STEPSTYPE:dance-single;
#DESCRIPTION:;
#CHARTSTYLE:;
#DIFFICULTY:Beginner;
#METER:1;
#RADARVALUES:0.135150,0.154860,0.000000,0.011263,0.000000,84.000000,84.000000,0.000000,1.000000,0.000000,0.000000,0.000000,0.000000,0.000000,0.135150,0.154860,0.000000,0.011263,0.000000,84.000000,84.000000,0.000000,1.000000,0.000000,0.000000,0.000000,0.000000,0.000000;
#CREDIT:;
#NOTES:
// measure 0
0000
0000
1000
0000
,  // measure 1
0000
0010
0000
0000
,  // measure 2
1000
0000
0000
0010
,  // measure 3
0000
0000
1000
0000
,  // measure 4
0000
0100
0000
0001
,  // measure 5
0000
0000
0010
0000
,  // measure 6
0000
0100
0000
0000
,  // measure 7
1000
0000
0010
0000
,  // measure 8
0000
0100
0000
0000
,  // measure 9
1000
0000
0000
0010
,  // measure 10
0000
0000
1000
0000
,  // measure 11
0000
0000
0010
0000
0000
0000
0000
2000
,  // measure 12
0000
0000
0000
0000
,  // measure 13
3000
0000
0000
1000
,  // measure 14
0000
1000
0000
0010
,  // measure 15
0000
0010
0000
0000
,  // measure 16
1000
0000
1000
0000
,  // measure 17
0010
0000
0100
0000
,  // measure 18
0010
0000
0001
0000
,  // measure 19
0001
0000
1000
0000
,  // measure 20
0000
0010
0000
0010
,  // measure 21
0000
0001
0000
0010
,  // measure 22
0000
0010
0000
0000
,  // measure 23
1000
0000
0010
0000
,  // measure 24
0001
0000
0000
0010
,  // measure 25
0000
1000
0000
0100
,  // measure 26
0000
0000
0000
0000
,  // measure 27
0000
1000
0000
0100
,  // measure 28
0000
0010
0000
0000
,  // measure 29
1000
0000
0000
0010
,  // measure 30
0000
0000
0001
0000
,  // measure 31
0000
0000
0100
0000
,  // measure 32
0000
0000
1000
0000
,  // measure 33
0000
0010
0000
0000
,  // measure 34
1000
0000
0000
0000
,  // measure 35
0010
0000
0000
1000
,  // measure 36
0000
0000
0000
1000
,  // measure 37
0000
0000
0001
0000
,  // measure 38
0000
0000
0000
0000
,  // measure 39
0000
1000
0000
0100
,  // measure 40
0000
0010
0000
1000
,  // measure 41
0000
0100
0000
0100
,  // measure 42
0000
0010
0000
0001
,  // measure 43
0000
1000
0000
0100
,  // measure 44
0000
0001
0000
0001
,  // measure 45
0000
0010
0000
0100
,  // measure 46
0000
1000
0000
0100
,  // measure 47
0000
0010
0000
0010
,  // measure 48
0000
0010
0000
1000
,  // measure 49
0000
0100
0000
0010
,  // measure 50
0000
1000
0000
1000
,  // measure 51
0000
0010
0000
0001
,  // measure 52
0000
0100
0000
0010
,  // measure 53
0000
0100
0000
0000
,  // measure 54
0000
0000
0000
0000
,  // measure 55
1000
0000
0000
0000
;
