#TITLE:vs Dialga;
#SUBTITLE:;
#ARTIST:Dancing Monkeys Project;
#TITLETRANSLIT:;
#SUBTITLETRANSLIT:;
#ARTISTTRANSLIT:;
#GENRE:;
#CREDIT:Gorilla v1.1.3 (Dancing Monkeys v1.06);
#BANNER:;
#BACKGROUND:riolu___eevee_by_starfur795_d6a2783-fullview.png;
#LYRICSPATH:;
#CDTITLE:;
#MUSIC:vs Dialga.mp3;
#OFFSET:-1.256961;
#SAMPLESTART:43.413513;
#SAMPLELENGTH:12.000000;
#SELECTABLE:YES;
#BPMS:0.000000=148.020004
;
#STOPS:
;
#BGCHANGES:0.000=Dialga.avi=1.000=0=0=0=StretchNoLoop====,
99999=-nosongbg-=1.000=0=0=0 // don't automatically add -songbackground-
;
#KEYSOUNDS:;
#ATTACKS:;

//---------------dance-single - Basic----------------
#NOTES:
     dance-single:
     Basic:
     Easy:
     3:
     0.253606,0.270767,0.000000,0.076813,0.000000,208.000000,208.000000,0.000000,9.000000,0.000000,0.000000,0.253606,0.270767,0.000000,0.076813,0.000000,208.000000,208.000000,0.000000,9.000000,0.000000,0.000000:
0000
0000
1000
0000
,
0000
0000
0010
0000
,
0000
0000
0010
0000
,
0000
0000
0001
0001
,
0001
0000
1000
1000
,
1000
1000
0000
0000
,
0000
1000
0010
1000
,
0000
1000
0100
1000
,
1000
1000
1000
1000
,
1000
1000
0020
0000
,
0000
0000
0000
0000
,
0000
0030
1000
0010
,
0010
1000
0001
1000
,
0010
0001
1000
0010
,
0100
1000
0001
0010
,
0010
1000
0001
0001
,
0001
0001
1000
0100
,
0100
1000
0001
0001
,
1000
1000
0001
0001
,
1000
1000
0001
0001
,
0010
1000
0001
0001
,
0010
0001
1000
0100
,
1000
0000
0001
0001
,
0010
0001
0000
1000
,
1000
0001
1000
1000
,
0010
1000
0001
0001
,
1000
0010
0010
0010
,
1000
0010
1000
0000
,
0001
0010
0001
0000
,
1000
0100
1000
0000
,
0001
0001
0100
0001
,
1000
0010
1000
0000
,
1000
0100
1000
0000
,
0001
1000
0020
0030
,
0002
0003
0200
0000
,
0300
0000
0100
0000
,
0001
0010
0001
0000
,
0001
0100
0001
0000
,
1000
1000
0100
0000
,
0000
1000
0001
0001
,
0001
0000
1000
1000
,
1000
0000
0020
0030
,
0002
0003
2000
0000
,
3000
0000
0010
0000
,
0001
0000
0010
0000
,
1000
0000
1000
0000
,
0001
0000
0100
0000
,
0000
0000
0100
0000
,
1000
0000
0001
0000
,
1000
0000
1000
0000
,
1000
1000
1000
0000
,
0000
0000
0020
0000
,
0000
0030
0000
0000
,
0000
0000
0001
0010
,
0001
1000
0100
1000
,
0010
1000
0010
0001
,
1000
0010
1000
1000
,
1000
0010
1000
1000
,
1000
0100
0001
0001
,
0001
1000
0010
0001
,
1000
0010
1000
1000
,
1000
0100
0010
0001
,
1000
0010
0100
0001
,
0001
1000
0010
1000
,
0010
1000
0001
0001
,
0001
1000
0010
1000
,
1000
0100
0010
0001
,
1000
1000
0010
1000
,
1000
1000
0010
0010
,
0010
0001
0002
0000
,
0000
0000
0003
0000
;

//---------------dance-single - Basic----------------
#NOTES:
     dance-single:
     :
     Beginner:
     3:
     0.196301,0.240682,0.000000,0.017070,0.000000,161.000000,161.000000,0.000000,2.000000,0.000000,0.000000,0.196301,0.240682,0.000000,0.017070,0.000000,161.000000,161.000000,0.000000,2.000000,0.000000,0.000000:
// measure 0
0000
0000
1000
0000
,  // measure 1
0000
0000
0010
0000
,  // measure 2
0000
0000
0010
0000
,  // measure 3
0000
0000
0001
0001
,  // measure 4
0001
0000
1000
1000
,  // measure 5
1000
0000
0000
0000
,  // measure 6
0000
1000
0010
1000
,  // measure 7
0000
1000
0100
0000
,  // measure 8
1000
0000
1000
0000
,  // measure 9
1000
0000
0010
0000
,  // measure 10
0000
0000
0000
0000
,  // measure 11
0000
0000
1000
0000
,  // measure 12
0010
0000
0001
0000
,  // measure 13
0010
0000
1000
0000
,  // measure 14
0100
0000
0001
0000
,  // measure 15
0010
0000
0001
0000
,  // measure 16
0001
0000
1000
0000
,  // measure 17
0100
0000
0001
0000
,  // measure 18
1000
0000
0001
0000
,  // measure 19
1000
0000
0001
0000
,  // measure 20
0010
0000
0001
0000
,  // measure 21
0010
0000
1000
0000
,  // measure 22
1000
0000
0001
0001
,  // measure 23
0001
0000
1000
1000
,  // measure 24
1000
0000
0100
0100
,  // measure 25
0100
0000
0001
0001
,  // measure 26
0001
0000
0010
0010
,  // measure 27
1000
1000
1000
0000
,  // measure 28
0001
0010
0001
0000
,  // measure 29
1000
0100
1000
0000
,  // measure 30
0001
0001
0001
0000
,  // measure 31
1000
1000
1000
0000
,  // measure 32
1000
0100
1000
0000
,  // measure 33
0001
0001
0010
0000
,  // measure 34
0001
0000
0100
0000
,  // measure 35
0000
0000
0100
0000
,  // measure 36
0001
0010
0001
0000
,  // measure 37
0001
0100
0001
0000
,  // measure 38
1000
1000
0100
0000
,  // measure 39
0000
0000
0001
0001
,  // measure 40
0001
0000
1000
1000
,  // measure 41
1000
0000
0010
0000
,  // measure 42
0001
0000
1000
0000
,  // measure 43
0000
0000
0010
0000
,  // measure 44
0001
0000
0010
0000
,  // measure 45
1000
0000
1000
0000
,  // measure 46
0001
0000
0100
0000
,  // measure 47
0000
0000
0100
0000
,  // measure 48
1000
0000
0001
0000
,  // measure 49
1000
0000
1000
0000
,  // measure 50
1000
1000
1000
0000
,  // measure 51
0000
0000
0020
0000
,  // measure 52
0000
0030
0000
0000
,  // measure 53
0000
0000
0001
0010
,  // measure 54
0001
0000
1000
0100
,  // measure 55
1000
0000
0010
0001
,  // measure 56
1000
0000
0010
0010
,  // measure 57
0010
0000
1000
1000
,  // measure 58
1000
0000
0001
0001
,  // measure 59
0001
0000
0010
0001
,  // measure 60
1000
0000
1000
1000
,  // measure 61
1000
0000
0010
0001
,  // measure 62
1000
0000
0100
0001
,  // measure 63
0001
0000
0010
1000
,  // measure 64
0010
0000
0001
0001
,  // measure 65
0001
0000
1000
1000
,  // measure 66
1000
0000
0010
0001
,  // measure 67
0001
0000
0010
1000
,  // measure 68
1000
0000
0010
0010
,  // measure 69
0010
0000
0002
0000
,  // measure 70
0000
0000
0003
0000
;
