#TITLE:onlymp3.to - Viewtiful Joe Theme Song Full Version With Lyrics-VfeFeemQil0-192k-1696893691;
#SUBTITLE:;
#ARTIST:Dancing Monkeys Project;
#TITLETRANSLIT:;
#SUBTITLETRANSLIT:;
#ARTISTTRANSLIT:;
#GENRE:;
#CREDIT:Gorilla v1.1.3 (Dancing Monkeys v1.06);
#BANNER:maxresdefault.png;
#BACKGROUND:thumb-1920-741680.png;
#LYRICSPATH:;
#CDTITLE:;
#MUSIC:New Project.ogg;
#OFFSET:-1.180208;
#SAMPLESTART:55.717705;
#SAMPLELENGTH:12.000000;
#SELECTABLE:YES;
#BPMS:0.000000=110.015999
;
#STOPS:
;
#BGCHANGES:;
#KEYSOUNDS:;
#ATTACKS:;

//---------------dance-single - Basic----------------
#NOTES:
     dance-single:
     Basic:
     Easy:
     5:
     0.254306,0.261309,0.085675,0.000000,0.000000,187.000000,178.000000,9.000000,0.000000,0.000000,0.000000,0.254306,0.261309,0.085675,0.000000,0.000000,187.000000,178.000000,9.000000,0.000000,0.000000,0.000000:
// measure 0
0000
0000
0000
0000
,  // measure 1
0000
0000
0010
1001
,  // measure 2
1000
0100
0010
0010
,  // measure 3
1000
0001
0100
0100
,  // measure 4
0001
1000
0010
0100
,  // measure 5
1000
0001
0100
0010
,  // measure 6
1000
0010
1000
0001
,  // measure 7
1000
0100
0010
1000
,  // measure 8
0010
0100
0010
1000
,  // measure 9
0001
1000
0010
0100
,  // measure 10
1000
0001
0100
0010
,  // measure 11
1000
0001
1000
0100
,  // measure 12
0010
0010
1000
0100
,  // measure 13
0001
0100
0010
1000
,  // measure 14
0010
0001
0100
0100
,  // measure 15
1000
0010
0100
1001
,  // measure 16
0100
0001
0100
0100
,  // measure 17
1000
0001
0010
0100
,  // measure 18
0001
1000
0100
0010
,  // measure 19
1000
0001
0010
0100
,  // measure 20
0001
1000
0100
0010
,  // measure 21
0001
1000
0100
0010
,  // measure 22
1000
0001
0010
0100
,  // measure 23
1001
0010
0100
0001
,  // measure 24
1000
0010
1001
0100
,  // measure 25
0010
1000
0010
0100
,  // measure 26
0001
1000
0010
0100
,  // measure 27
1000
0001
0100
0010
,  // measure 28
1000
0001
1000
0010
,  // measure 29
1000
0001
0100
0100
,  // measure 30
1001
0010
1000
0100
,  // measure 31
1000
0100
0010
0001
,  // measure 32
0010
0100
1000
0100
,  // measure 33
0001
1000
0010
0100
,  // measure 34
1001
0010
1000
0100
,  // measure 35
1001
0010
1001
0001
,  // measure 36
0100
0100
1000
1001
,  // measure 37
0100
0010
1000
0100
,  // measure 38
1000
0001
1000
0010
,  // measure 39
1000
0001
0100
0001
,  // measure 40
1000
0100
0010
1000
,  // measure 41
0001
1000
0100
0010
,  // measure 42
1000
0001
0010
0100
,  // measure 43
1000
0010
1000
0010
,  // measure 44
0001
1000
0100
0010
,  // measure 45
1000
0010
1000
0010
;

//---------------dance-single - Standard----------------
#NOTES:
     dance-single:
     Standard:
     Medium:
     7:
     0.425656,0.349364,0.009519,0.000000,0.000000,313.000000,312.000000,1.000000,0.000000,0.000000,0.000000,0.425656,0.349364,0.009519,0.000000,0.000000,313.000000,312.000000,1.000000,0.000000,0.000000,0.000000:
0000
0000
0000
0000
0000
0000
0000
0000
,
0000
0000
0000
0001
0001
0010
0001
0100
,
0001
0000
1000
0100
0010
0001
0010
0001
,
0001
0000
0100
0010
0001
0001
0001
0001
,
1000
0000
0010
0100
1000
1000
1000
1000
,
0001
0000
0100
0010
0001
0001
0001
0001
,
1000
0100
1000
0000
0001
0100
0001
0100
,
0001
1000
0100
0000
1000
0010
1000
0001
,
0001
1000
0010
0000
1000
0100
1000
0001
,
1000
0001
0010
0001
1000
0100
0100
0010
,
0001
1000
0001
0000
0100
0100
1000
0000
,
0001
0000
0100
0010
0001
0001
0001
0001
,
1000
0100
1000
0000
0001
0100
0001
0100
,
0001
1000
0100
0000
1000
0010
1000
0001
,
0001
0000
0100
0010
0001
0001
0001
0001
,
1000
0100
0001
0100
0100
1000
0010
1000
,
0001
0000
0100
0010
0001
0001
0001
0001
,
1000
0000
0100
0010
1000
1000
1000
1000
,
0001
0010
0100
0010
0010
0000
0001
0001
,
0001
0010
0100
0010
0010
0000
0001
0001
,
1000
0100
0010
0100
0100
0000
1000
1000
,
0001
0010
0100
0010
0010
0000
0001
0001
,
0001
0010
0100
0010
0010
0000
0001
0001
,
1000
0100
0010
0001
0010
0001
0100
0010
,
0001
0010
0100
0010
0010
0000
0001
0001
,
1000
0010
0100
0010
0010
0000
1000
1000
,
0001
0010
0100
0010
0010
0000
0001
0001
,
0001
0000
0100
0010
0001
0001
0001
0001
,
1000
0000
0010
0100
1000
1000
1000
1000
,
0001
0000
0010
0100
0001
0001
0001
0001
,
1000
0100
1000
0000
0001
0100
0001
0100
,
0001
1000
0100
0000
1000
0010
1000
0001
,
1000
0100
1000
0000
0001
0100
0001
0100
,
0001
0000
0001
0000
0101
0000
0100
0001
,
1000
0100
1000
0000
0001
0100
0001
0100
,
0001
0000
1000
0100
0010
0001
0001
1000
,
0001
1000
0001
0000
0010
0001
1000
0000
,
0001
0000
1000
0100
0010
0001
0001
1000
,
0001
0000
1000
0100
0010
0001
0010
0001
,
0001
0000
0100
0010
0001
0001
0001
0001
,
0001
1000
0100
0000
1000
0010
1000
0001
,
0001
0010
0100
0010
0010
0000
0001
0001
,
1000
0010
0100
0010
0010
0000
1000
1000
,
1000
0001
1000
0001
0010
0000
1000
0010
,
0001
0010
0100
0010
0010
0000
0001
0001
,
1000
0001
1000
0001
0010
0000
1000
0010
,
;

//---------------dance-single - Heavy----------------
#NOTES:
     dance-single:
     Heavy:
     Hard:
     7:
     0.440615,0.371199,0.009519,0.000000,0.000000,324.000000,323.000000,1.000000,0.000000,0.000000,0.000000,0.440615,0.371199,0.009519,0.000000,0.000000,324.000000,323.000000,1.000000,0.000000,0.000000,0.000000:
0000
0000
0000
0000
0001
0000
0000
0000
,
0001
0001
0001
0001
0001
0100
0010
0100
,
0001
1000
0100
0010
1000
0010
0100
1000
,
0001
0000
1000
0100
1000
1000
1000
1000
,
1000
0000
0001
0010
0001
0001
0001
0001
,
0001
0000
1000
0100
1000
1000
1000
1000
,
1000
0001
0010
0000
0001
0100
0001
1000
,
1000
0001
0100
0010
0100
0010
1000
0010
,
1000
0001
0100
0010
0100
0010
1000
0010
,
0001
0000
0100
0001
0100
0001
0001
0000
,
1000
0010
0100
0010
1000
1000
0010
0100
,
0001
0000
1000
0100
1000
1000
1000
1000
,
1000
0001
0010
0000
0001
0100
0001
1000
,
1000
0001
0100
0010
0100
0010
1000
0010
,
0001
0000
1000
0100
1000
1000
1000
1000
,
0001
0100
0001
0100
0100
0000
0010
0000
,
0001
0000
1000
0100
1000
1000
1000
1000
,
1000
0000
0001
0100
0001
0001
0001
0001
,
1000
0100
0010
0001
0001
0000
0100
0100
,
0001
0010
0100
1000
1000
0000
0010
0010
,
0001
0100
0010
1000
1000
0000
0100
0100
,
1000
0010
0100
0001
0001
0000
0010
0010
,
0001
0100
0010
1000
1000
0000
0100
0100
,
1000
0001
0010
0001
0100
0001
0100
0010
,
1000
0100
0010
0001
0001
0000
0100
0100
,
1000
0010
0100
0001
0001
0000
0010
0010
,
1000
0010
0100
0001
0001
0000
0010
0010
,
0001
0000
1000
0100
1000
1000
1000
1000
,
0001
0000
1000
0010
1000
1000
1000
1000
,
0001
0000
1000
0100
1000
1000
1000
1000
,
1000
0001
0010
0000
0001
0100
0001
1000
,
1000
0001
0100
0010
0100
0010
1000
0010
,
1000
0001
0010
0000
0001
0100
0001
1000
,
0001
0000
0001
0000
1001
0000
0100
1000
,
1000
0001
0010
0000
0001
0100
0001
1000
,
0001
1000
0010
1000
0001
0100
0100
0001
,
0001
1000
0010
0000
1000
0100
0010
0000
,
0001
1000
0010
1000
0001
0100
0100
0001
,
0001
1000
0100
0010
1000
0010
0100
1000
,
0001
0000
1000
0100
1000
1000
1000
1000
,
1000
0001
0100
0010
0100
0010
1000
0010
,
1000
0100
0010
0001
0001
0000
0100
0100
,
1000
0100
0010
0001
0001
0000
0100
0100
,
0001
0100
0010
1000
0001
0000
0100
0001
,
1000
0100
0010
0001
0001
0000
0100
0100
,
0001
0100
0010
1000
0001
0000
0100
0001
,
;
