#TITLE:Viewtiful Jow Ed And You;
#SUBTITLE:;
#ARTIST:Dancing Monkeys Project;
#TITLETRANSLIT:;
#SUBTITLETRANSLIT:;
#ARTISTTRANSLIT:;
#GENRE:;
#CREDIT:Gorilla v1.1.3 (Dancing Monkeys v1.06);
#BANNER:thumb-1920-330257.png;
#BACKGROUND:586312.png;
#LYRICSPATH:;
#CDTITLE:;
#MUSIC:New Project.ogg;
#OFFSET:-1.562854;
#SAMPLESTART:41.558689;
#SAMPLELENGTH:12.000000;
#SELECTABLE:YES;
#BPMS:0.000000=150.016006
;
#STOPS:
;
#BGCHANGES:;
#KEYSOUNDS:;
#ATTACKS:;

//---------------dance-single - Basic----------------
#NOTES:
     dance-single:
     Basic:
     Easy:
     7:
     0.339981,0.301053,0.009519,0.000000,0.000000,250.000000,249.000000,1.000000,0.000000,0.000000,0.000000,0.339981,0.301053,0.009519,0.000000,0.000000,250.000000,249.000000,1.000000,0.000000,0.000000,0.000000:
0000
0000
0000
0000
,
0001
0001
0100
0010
,
0001
1000
0001
0100
,
0001
0100
0010
0001
,
0010
0001
0010
1000
,
0100
0010
1000
0010
,
0000
0100
0010
0100
,
0010
1000
0010
0010
,
0100
0001
0010
0100
,
0001
0100
1000
0010
,
0100
1000
0001
0100
,
0001
1000
0100
0010
,
1000
0001
0100
0010
,
1000
0001
0100
0010
,
0100
0010
0100
0010
,
1000
0010
0100
0010
,
0001
0001
0100
0010
,
1000
0010
0100
0010
,
0001
1000
0100
1000
,
0010
1000
0001
0010
,
1000
0100
0010
0100
,
0010
1000
0001
0100
,
0001
0010
0100
0010
,
1000
0001
0100
0010
,
1000
0001
0100
0010
,
1000
1000
0100
0001
,
1000
0001
0100
0010
,
1000
1000
0001
1000
,
0100
0010
0100
0010
,
1000
1000
0100
0010
,
1000
0010
0100
0010
,
1000
1000
0001
0010
,
1000
0001
0100
0010
,
1000
1000
0100
0010
,
1000
0010
0100
0010
,
1000
0001
0010
1000
,
0010
0001
0100
0010
,
1000
0001
0010
0001
,
1000
0001
0100
0010
,
1000
0001
0010
1000
,
0010
0001
0100
0010
,
1000
0001
0010
0001
,
0100
0001
0100
0010
,
1000
0100
0010
1000
,
0100
0001
1000
0100
,
0001
0100
0010
1000
,
0100
0001
1000
0100
,
1000
0010
1000
0010
,
0100
1000
0010
0100
,
0001
1000
0010
1000
,
0010
1000
0010
0100
,
0001
1000
0100
1000
,
0100
1000
0010
0100
,
1000
0100
0010
1000
,
0010
1000
0010
0100
,
0100
0010
0010
1000
,
0010
0001
0010
0100
,
0001
1000
0010
1000
,
0010
0100
0010
0100
,
1001
0010
1000
0010
,
1000
0100
1000
0010
,
1000
0010
0001
0010
,
1000
0010
1000
0010
,
1000
0001
0000
0000
;

//---------------dance-single - Basic----------------
#NOTES:
     dance-single:
     :
     Beginner:
     7:
     0.169990,0.149931,0.000000,0.000000,0.000000,125.000000,125.000000,0.000000,0.000000,0.000000,0.000000,0.169990,0.149931,0.000000,0.000000,0.000000,125.000000,125.000000,0.000000,0.000000,0.000000,0.000000:
// measure 0
0000
0000
0000
0000
,  // measure 1
0001
0000
0100
0000
,  // measure 2
0010
0000
0001
0000
,  // measure 3
0001
0000
0100
0000
,  // measure 4
1000
0000
0010
0000
,  // measure 5
0100
0000
1000
0000
,  // measure 6
0001
0000
1000
0000
,  // measure 7
0010
0000
0001
0000
,  // measure 8
0100
0000
0010
0000
,  // measure 9
0001
0000
1000
0000
,  // measure 10
0100
0000
0001
0000
,  // measure 11
0010
0000
0100
0000
,  // measure 12
1000
0000
0100
0000
,  // measure 13
0010
0000
0001
0000
,  // measure 14
0100
0000
0010
0000
,  // measure 15
1000
0000
0100
0000
,  // measure 16
0001
0000
0100
0000
,  // measure 17
1000
0000
0100
0000
,  // measure 18
0001
0000
0100
0000
,  // measure 19
0010
0000
0001
0000
,  // measure 20
1000
0000
0001
0000
,  // measure 21
0010
0000
1000
0000
,  // measure 22
0001
0000
0100
0000
,  // measure 23
1000
0000
0100
0000
,  // measure 24
1000
0000
0100
0000
,  // measure 25
1000
0000
0001
0000
,  // measure 26
1000
0000
0100
0000
,  // measure 27
1000
0000
0001
0000
,  // measure 28
1000
0000
0100
0000
,  // measure 29
1000
0000
0100
0000
,  // measure 30
1000
0000
0100
0000
,  // measure 31
1000
0000
0001
0000
,  // measure 32
1000
0000
0100
0000
,  // measure 33
1000
0000
0100
0000
,  // measure 34
0001
0000
0100
0000
,  // measure 35
1000
0000
0100
0000
,  // measure 36
0010
0000
0100
0000
,  // measure 37
1000
0000
0010
0000
,  // measure 38
1000
0000
0100
0000
,  // measure 39
1000
0000
0001
0000
,  // measure 40
0010
0000
0100
0000
,  // measure 41
0001
0000
0010
0000
,  // measure 42
1000
0000
0100
0000
,  // measure 43
1000
0000
0010
0000
,  // measure 44
0100
0000
1000
0000
,  // measure 45
0100
0000
0010
0000
,  // measure 46
0100
0000
0001
0000
,  // measure 47
0100
0000
1000
0000
,  // measure 48
0100
0000
0010
0000
,  // measure 49
0001
0000
0100
0000
,  // measure 50
1000
0000
0010
0000
,  // measure 51
0001
0000
0010
0000
,  // measure 52
0100
0000
0010
0000
,  // measure 53
1000
0000
0010
0000
,  // measure 54
0001
0000
1000
0000
,  // measure 55
0100
0000
0001
0000
,  // measure 56
0100
0000
1000
0000
,  // measure 57
0001
0000
0100
0000
,  // measure 58
1000
0000
0010
0000
,  // measure 59
0010
0000
1000
0000
,  // measure 60
0010
0000
1000
0000
,  // measure 61
0100
0000
0001
0000
,  // measure 62
0010
0000
0100
0000
,  // measure 63
1000
0000
0000
0000
;
