#VERSION:0.83;
#TITLE:Sonic Rush - Vela-nova;
#SUBTITLE:;
#ARTIST:Dancing Monkeys Project;
#TITLETRANSLIT:;
#SUBTITLETRANSLIT:;
#ARTISTTRANSLIT:;
#GENRE:;
#ORIGIN:;
#CREDIT:Gorilla v1.1.3 (Dancing Monkeys v1.06);
#BANNER:;
#BACKGROUND:;
#PREVIEWVID:;
#JACKET:;
#CDIMAGE:;
#DISCIMAGE:;
#LYRICSPATH:;
#CDTITLE:;
#MUSIC:Sonic Rush - Vela-nova.mp3;
#OFFSET:-0.436803;
#SAMPLESTART:40.985554;
#SAMPLELENGTH:12.000000;
#SELECTABLE:YES;
#BPMS:0.000=147.970;
#STOPS:;
#DELAYS:;
#WARPS:;
#TIMESIGNATURES:0.000=4=4;
#TICKCOUNTS:0.000=4;
#COMBOS:0.000=1;
#SPEEDS:0.000=1.800=0.000=0;
#SCROLLS:0.000=1.000;
#FAKES:;
#LABELS:0.000=Song Start;
#BGCHANGES:;
#KEYSOUNDS:;
#ATTACKS:
;

//---------------dance-single - Basic----------------
#NOTEDATA:;
#CHARTNAME:Basic;
#STEPSTYPE:dance-single;
#DESCRIPTION:Basic;
#CHARTSTYLE:;
#DIFFICULTY:Easy;
#METER:4;
#RADARVALUES:0.256597,0.234379,0.000000,0.098571,0.000000,164.000000,164.000000,0.000000,9.000000,0.000000,0.000000,0.000000,0.000000,0.000000,0.256597,0.234379,0.000000,0.098571,0.000000,164.000000,164.000000,0.000000,9.000000,0.000000,0.000000,0.000000,0.000000,0.000000;
#CREDIT:Basic;
#NOTES:
// measure 0
0000
0001
0010
0200
,  // measure 1
0300
0001
1000
0200
,  // measure 2
0300
1000
0001
0200
,  // measure 3
0300
0001
0010
0100
,  // measure 4
1000
0001
0200
0300
,  // measure 5
0001
1000
0020
0030
,  // measure 6
0001
0001
1000
0100
,  // measure 7
0000
1000
0001
0010
,  // measure 8
0010
1000
0001
0200
,  // measure 9
0300
1000
0001
0100
,  // measure 10
0000
1000
0001
0010
,  // measure 11
0000
0001
1000
0100
,  // measure 12
0000
1000
0001
0100
,  // measure 13
1000
0001
0200
0000
,  // measure 14
0300
0001
1000
0100
,  // measure 15
1000
0001
0200
0000
,  // measure 16
0300
0001
1000
1000
,  // measure 17
0010
0001
0010
0100
,  // measure 18
0000
1000
0010
0100
,  // measure 19
0000
1000
0010
0100
,  // measure 20
1000
0001
0100
0000
,  // measure 21
0001
1000
0200
0000
,  // measure 22
0300
1000
0100
1000
,  // measure 23
1000
0001
0100
0000
,  // measure 24
0000
0001
1000
0100
,  // measure 25
0000
0001
1000
0100
,  // measure 26
0000
1000
0001
0010
,  // measure 27
0000
0001
0010
0100
,  // measure 28
0000
0001
1000
0100
,  // measure 29
1000
0001
0100
0000
,  // measure 30
0000
0001
1000
0100
,  // measure 31
1000
0001
0100
0000
,  // measure 32
0000
0010
1000
0000
,  // measure 33
0000
0001
1000
0100
,  // measure 34
0000
0001
0010
0100
,  // measure 35
0000
1000
0010
0100
,  // measure 36
1000
0001
0100
0000
,  // measure 37
1000
0001
0100
0000
,  // measure 38
0000
0001
1000
0100
,  // measure 39
0000
0001
1000
0010
,  // measure 40
0000
1000
0001
0100
,  // measure 41
0000
1000
0001
0010
,  // measure 42
0000
1000
0001
0100
,  // measure 43
0000
0001
1000
0010
,  // measure 44
0000
0001
1000
0010
,  // measure 45
1000
0001
0100
0000
,  // measure 46
0000
0001
1000
0100
,  // measure 47
1000
0001
0100
0000
,  // measure 48
0000
0001
1000
0010
,  // measure 49
0000
0001
1000
0100
,  // measure 50
0000
1000
0001
0100
,  // measure 51
0000
0001
0010
0100
,  // measure 52
1000
0001
0100
0000
,  // measure 53
0001
1000
0010
0000
;

//---------------dance-single - Standard----------------
#NOTEDATA:;
#CHARTNAME:Standard;
#STEPSTYPE:dance-single;
#DESCRIPTION:Standard;
#CHARTSTYLE:;
#DIFFICULTY:Medium;
#METER:6;
#RADARVALUES:0.337957,0.294343,0.032857,0.000000,0.000000,216.000000,213.000000,3.000000,0.000000,0.000000,0.000000,0.000000,0.000000,0.000000,0.337957,0.294343,0.032857,0.000000,0.000000,216.000000,213.000000,3.000000,0.000000,0.000000,0.000000,0.000000,0.000000,0.000000;
#CREDIT:Standard;
#NOTES:
0001
0000
0100
0000
0001
0000
1000
0000
,
1000
0000
0100
0000
0010
0000
0100
0000
,
0001
0000
0100
0000
0010
0000
0100
0000
,
0001
0000
0100
0000
0001
0000
1000
0000
,
1000
0000
0001
0000
1000
0000
0100
0000
,
0001
0000
1000
0000
0001
0000
0010
0000
,
1000
0000
0100
0000
0010
0000
0100
0000
,
0001
0000
0100
0000
0010
0000
0100
0000
,
0001
0000
0010
0000
0100
0000
0010
0000
,
1000
0000
0100
0000
0010
0000
0100
0000
,
0001
0000
0010
0000
0100
0000
0010
0000
,
0001
0000
0100
0000
0010
0000
0100
0000
,
0001
0000
0010
0000
0100
0000
0010
0000
,
1000
0000
0001
0000
1000
0000
0100
0000
,
1000
0000
0100
0000
0010
0000
0100
0000
,
1000
0000
0001
0000
1000
0000
0100
0000
,
0000
0000
0101
0000
0001
0000
1000
0000
,
0001
0000
0100
0000
0001
0000
1000
0000
,
0001
0000
0010
0000
0001
0000
1000
0000
,
0001
0000
0010
0000
0001
0000
1000
0000
,
1000
0000
0001
0000
1000
0000
0100
0000
,
1000
0000
0001
0000
1000
0000
0010
0000
,
0001
0000
0100
0000
0010
0000
1000
0000
,
1000
0000
0001
0000
1000
0000
0100
0000
,
1000
0000
0100
0000
0010
0000
0100
0000
,
0001
0000
0010
0000
0100
0000
0010
0000
,
0001
0000
0100
0000
0010
0000
0100
0000
,
0001
0000
0100
0000
0001
0000
1000
0000
,
1000
0000
0100
0000
0010
0000
0100
0000
,
1000
0000
0001
0000
1000
0000
0100
0000
,
1000
0000
0100
0000
0010
0000
0100
0000
,
1000
0000
0001
0000
1000
0000
0100
0000
,
0000
0000
0101
0000
0001
0000
1000
0000
,
1000
0000
0100
0000
0010
0000
0100
0000
,
0001
0000
0100
0000
0001
0000
1000
0000
,
1000
0000
0010
0000
1000
0000
0001
0000
,
1000
0000
0001
0000
1000
0000
0100
0000
,
1000
0000
0001
0000
1000
0000
0100
0000
,
1000
0000
0100
0000
0010
0000
0100
0000
,
0001
0000
0010
0000
0100
0000
0010
0000
,
1000
0000
0010
0000
0100
0000
0010
0000
,
1000
0000
0100
0000
0010
0000
0100
0000
,
1000
0000
0010
0000
0100
0000
0010
0000
,
0001
0000
0010
0000
0100
0000
0010
0000
,
0001
0000
0010
0000
0100
0000
0010
0000
,
1000
0000
0001
0000
1000
0000
0100
0000
,
1000
0000
0100
0000
0010
0000
0100
0000
,
1000
0000
0001
0000
1000
0000
0100
0000
,
0000
0000
0101
0000
0001
0000
1000
0000
,
1000
0000
0100
0000
0010
0000
0100
0000
,
0001
0000
0100
0000
0010
0000
0100
0000
,
0001
0000
0100
0000
0001
0000
1000
0000
,
1000
0000
0001
0000
1000
0000
0100
0000
,
0001
0000
1000
0000
0001
0000
0100
0000
,
;

//---------------dance-single - Heavy----------------
#NOTEDATA:;
#CHARTNAME:Heavy;
#STEPSTYPE:dance-single;
#DESCRIPTION:Heavy;
#CHARTSTYLE:;
#DIFFICULTY:Hard;
#METER:6;
#RADARVALUES:0.361426,0.323777,0.197141,0.000000,0.000000,231.000000,213.000000,18.000000,0.000000,0.000000,0.000000,0.000000,0.000000,0.000000,0.361426,0.323777,0.197141,0.000000,0.000000,231.000000,213.000000,18.000000,0.000000,0.000000,0.000000,0.000000,0.000000,0.000000;
#CREDIT:Heavy;
#NOTES:
0001
0000
0100
0000
0010
0000
0100
0000
,
1000
0000
0100
0000
1000
0000
0100
0000
,
0001
0000
0100
0000
0001
0000
0100
0000
,
0001
0000
0100
0000
0010
0000
0100
0000
,
0101
0000
0001
0000
0010
0000
0001
0000
,
0101
0000
0001
0000
0010
0000
0001
0000
,
1000
0000
0100
0000
1000
0000
0100
0000
,
0001
0000
0010
0000
0001
0000
0010
0000
,
1000
0000
0100
0000
1000
0000
0100
0000
,
1000
0000
0100
0000
1000
0000
0100
0000
,
0001
0000
0010
0000
0001
0000
0010
0000
,
1000
0000
0010
0000
1000
0000
0010
0000
,
0001
0000
0100
0000
0001
0000
0100
0000
,
0101
0000
0001
0000
0010
0000
0001
0000
,
1000
0000
0100
0000
1000
0000
0100
0000
,
0101
0000
0001
0000
0010
0000
0001
0000
,
0000
0000
1010
0000
0010
0000
0100
0000
,
0001
0000
0100
0000
0010
0000
0100
0000
,
0001
0000
0100
0000
0010
0000
0100
0000
,
0001
0000
0100
0000
0010
0000
0100
0000
,
0101
0000
0001
0000
0010
0000
0001
0000
,
0101
0000
0001
0000
0010
0000
0001
0000
,
1000
0000
0100
0000
0010
0000
0100
0000
,
0101
0000
0001
0000
0010
0000
0001
0000
,
1000
0000
0100
0000
1000
0000
0100
0000
,
1000
0000
0100
0000
1000
0000
0100
0000
,
0001
0000
0100
0000
0001
0000
0100
0000
,
0001
0000
0100
0000
0010
0000
0100
0000
,
1000
0000
0100
0000
1000
0000
0100
0000
,
0101
0000
0001
0000
0010
0000
0001
0000
,
1000
0000
0100
0000
1000
0000
0100
0000
,
0101
0000
0001
0000
0010
0000
0001
0000
,
0000
0000
1010
0000
0010
0000
0100
0000
,
1000
0000
0100
0000
1000
0000
0100
0000
,
0001
0000
0100
0000
0010
0000
0100
0000
,
0001
0000
0100
0000
0010
0000
0100
0000
,
0101
0000
0001
0000
0010
0000
0001
0000
,
0101
0000
0001
0000
0010
0000
0001
0000
,
1000
0000
0100
0000
1000
0000
0100
0000
,
0001
0000
0010
0000
0001
0000
0010
0000
,
0001
0000
0100
0000
0001
0000
0100
0000
,
1000
0000
0010
0000
1000
0000
0010
0000
,
0001
0000
0100
0000
0001
0000
0100
0000
,
0001
0000
0100
0000
0001
0000
0100
0000
,
1000
0000
0100
0000
1000
0000
0100
0000
,
0101
0000
0001
0000
0010
0000
0001
0000
,
1000
0000
0100
0000
1000
0000
0100
0000
,
0101
0000
0001
0000
0010
0000
0001
0000
,
0000
0000
1010
0000
0010
0000
0100
0000
,
1000
0000
0100
0000
1000
0000
0100
0000
,
0001
0000
0100
0000
0001
0000
0100
0000
,
0001
0000
0100
0000
0010
0000
0100
0000
,
0101
0000
0001
0000
0010
0000
0001
0000
,
0101
0000
0001
0000
0010
0000
0001
0000
,
;
