#TITLE:Up (Clean);
#SUBTITLE:;
#ARTIST:Cardi Bee;
#TITLETRANSLIT:;
#SUBTITLETRANSLIT:;
#ARTISTTRANSLIT:;
#GENRE:;
#CREDIT:Gorilla v1.1.3 (Dancing Monkeys v1.06);
#BANNER:;
#BACKGROUND:;
#LYRICSPATH:;
#CDTITLE:;
#MUSIC:Cardi B - Up (Clean - Lyrics).mp3;
#OFFSET:-1.731500;
#SAMPLESTART:39.320999;
#SAMPLELENGTH:12.000000;
#SELECTABLE:YES;
#BPMS:0.000000=154.000000
;
#STOPS:
;
#BGCHANGES:;
#KEYSOUNDS:;
#ATTACKS:;

//---------------dance-single - Basic----------------
#NOTES:
     dance-single:
     Basic:
     Easy:
     3:
     0.109066,0.100639,0.000000,0.006941,0.000000,110.000000,110.000000,0.000000,1.000000,0.000000,0.000000,0.109066,0.100639,0.000000,0.006941,0.000000,110.000000,110.000000,0.000000,1.000000,0.000000,0.000000:
// measure 0
0000
1000
0000
1000
,  // measure 1
0000
0010
0000
0100
,  // measure 2
0000
1000
0000
0010
,  // measure 3
0000
0000
0000
0000
,  // measure 4
0000
0000
0001
0000
,  // measure 5
0100
0000
0010
0000
,  // measure 6
1000
0000
0100
0000
,  // measure 7
0010
0000
0100
0000
,  // measure 8
0001
0000
0100
0000
,  // measure 9
0001
0000
0100
0000
,  // measure 10
0001
0000
1000
0000
,  // measure 11
0010
0000
0100
0000
,  // measure 12
0001
0000
1000
0000
,  // measure 13
0001
0000
0000
1000
,  // measure 14
0000
1000
0000
0010
,  // measure 15
0000
1000
0000
0100
,  // measure 16
0000
1000
0000
0010
,  // measure 17
0000
1000
0000
0002
,  // measure 18
0000
0000
0000
0000
,  // measure 19
0003
0000
1000
0000
,  // measure 20
0001
0000
0100
0100
,  // measure 21
0000
0001
0000
0010
,  // measure 22
0000
0001
0000
0010
,  // measure 23
0000
0100
0000
1000
,  // measure 24
0000
0100
0000
0010
,  // measure 25
0000
0001
0000
0010
,  // measure 26
0000
0001
0000
0010
,  // measure 27
0000
0100
0000
0010
,  // measure 28
0000
0001
0000
0010
,  // measure 29
0000
0001
0000
0010
,  // measure 30
0000
0001
0000
0010
,  // measure 31
0000
0100
0000
0010
,  // measure 32
0000
0001
0000
0010
,  // measure 33
0000
0100
0000
0010
,  // measure 34
0000
0001
0000
0010
,  // measure 35
0000
0100
0000
0010
,  // measure 36
0000
0001
0000
0010
,  // measure 37
0000
0100
0000
1000
,  // measure 38
0000
0010
0000
0100
,  // measure 39
0000
1000
0000
0010
,  // measure 40
0000
0100
0000
0100
,  // measure 41
0000
1000
0000
0001
,  // measure 42
0000
1000
0000
0010
,  // measure 43
0000
1000
0000
0100
,  // measure 44
0000
0010
0000
0100
,  // measure 45
0000
1000
0000
0010
,  // measure 46
0000
1000
0000
0010
,  // measure 47
0000
1000
0000
0010
,  // measure 48
0000
1000
0000
0010
,  // measure 49
0000
1000
0000
1000
,  // measure 50
0000
0000
0000
0000
,  // measure 51
0010
0000
1000
0000
,  // measure 52
0010
0000
1000
0000
,  // measure 53
0010
0000
1000
0000
,  // measure 54
0001
0000
0100
0000
,  // measure 55
0010
0000
0001
0000
,  // measure 56
1000
0000
0010
0000
,  // measure 57
0100
0000
0001
0000
,  // measure 58
0100
0000
0000
0000
;
