#TITLE:Unavailable;
#SUBTITLE:;
#ARTIST:Davido;
#TITLETRANSLIT:;
#SUBTITLETRANSLIT:;
#ARTISTTRANSLIT:;
#GENRE:;
#CREDIT:Gorilla v1.1.3 (Dancing Monkeys v1.06);
#BANNER:;
#BACKGROUND:;
#LYRICSPATH:;
#CDTITLE:;
#MUSIC:Davido - UNAVAILABLE (Lyrics) ft. Musa Keys.mp3;
#OFFSET:-0.640125;
#SAMPLESTART:53.748455;
#SAMPLELENGTH:12.000000;
#SELECTABLE:YES;
#BPMS:0.000000=112.976997
;
#STOPS:
;
#BGCHANGES:;
#KEYSOUNDS:;
#ATTACKS:;

//---------------dance-single - Basic----------------
#NOTES:
     dance-single:
     Basic:
     Easy:
     3:
     0.133546,0.116349,0.000000,0.000000,0.000000,116.000000,116.000000,0.000000,0.000000,0.000000,0.000000,0.133546,0.116349,0.000000,0.000000,0.000000,116.000000,116.000000,0.000000,0.000000,0.000000,0.000000:
// measure 0
1000
0000
0010
0000
,  // measure 1
1000
0000
0100
0000
,  // measure 2
0001
0000
0100
0000
,  // measure 3
0001
0000
0010
0000
,  // measure 4
0001
0000
0010
0000
,  // measure 5
0001
0000
0010
0000
,  // measure 6
0001
0000
0010
0000
,  // measure 7
1000
0000
0010
0000
,  // measure 8
1000
0000
0100
0000
,  // measure 9
1000
0000
0010
0000
,  // measure 10
1000
0000
0100
0000
,  // measure 11
1000
0000
0010
0000
,  // measure 12
1000
0000
0100
0000
,  // measure 13
1000
0000
0010
0000
,  // measure 14
1000
0000
0100
0000
,  // measure 15
0001
0000
0100
0000
,  // measure 16
1000
0000
0010
0000
,  // measure 17
1000
0000
1000
0000
,  // measure 18
1000
0000
0100
0000
,  // measure 19
1000
0000
0010
0000
,  // measure 20
1000
0000
0100
0000
,  // measure 21
1000
0000
1000
0000
,  // measure 22
0001
0000
0100
0000
,  // measure 23
1000
0000
0010
0000
,  // measure 24
1000
0000
0010
0000
,  // measure 25
1000
0000
1000
0000
,  // measure 26
1000
0000
0100
0000
,  // measure 27
0001
0000
0100
0000
,  // measure 28
1000
0000
0010
0000
,  // measure 29
1000
0000
0100
0000
,  // measure 30
1000
0000
0010
0000
,  // measure 31
1000
0000
0100
0000
,  // measure 32
0001
0000
1000
0000
,  // measure 33
0001
0000
0100
0000
,  // measure 34
0001
0000
1000
0000
,  // measure 35
0001
0000
0010
0000
,  // measure 36
0001
0000
0010
0000
,  // measure 37
0001
0000
0100
0000
,  // measure 38
1000
0000
0001
0000
,  // measure 39
1000
0000
0100
0000
,  // measure 40
1000
0000
0100
0000
,  // measure 41
1000
0000
0010
0000
,  // measure 42
1000
0000
0100
0000
,  // measure 43
1000
0000
0010
0000
,  // measure 44
1000
0000
0100
0000
,  // measure 45
1000
0000
1000
0000
,  // measure 46
0001
0000
0100
0000
,  // measure 47
1000
0000
0100
0000
,  // measure 48
1000
0000
0010
0000
,  // measure 49
1000
0000
1000
0000
,  // measure 50
1000
0000
0100
0000
,  // measure 51
1000
0000
0010
0000
,  // measure 52
0001
0000
0100
0000
,  // measure 53
1000
0000
1000
0000
,  // measure 54
0001
0000
0100
0000
,  // measure 55
1000
0000
0100
0000
,  // measure 56
1000
0000
0010
0000
,  // measure 57
1000
0000
0000
0010
;
