#TITLE:Kevin Lyttle - Turn Me On (lyrics);
#ARTIST:Dancing Monkeys Project;
#OFFSET:-0.281338;
#BPMS:0=106.081867;
#MUSIC:Kevin Lyttle - Turn Me On (lyrics).mp3;
#CREDIT:Gorilla v1.1.3 (Dancing Monkeys v1.06); // --- Arrows ---
#NOTES:
     dance-single:
     Basic:
     easy:
     3:
     :
0000
0000
0000
0000
1000
0000
0000
0000
,
0000
0000
0000
0000
0000
0000
1000
0000
,
1000
0000
0010
0000
0100
0000
0010
0000
,
0001
0000
0010
0000
0100
0000
0010
0000
,
0000
0000
1000
0000
0010
0000
1000
0000
,
1000
0000
0010
0000
0100
0000
1001
0000
,
0001
0000
1000
0000
0010
0000
1000
0000
,
0001
0000
1000
0000
0100
0000
1000
0000
,
0000
0000
1000
0000
0010
0000
1000
0000
,
1000
0000
0100
0000
0000
0000
0010
0000
,
1000
0000
0001
0000
1000
0000
0010
0000
,
0001
0000
1000
0000
0001
0000
0100
0000
,
0001
0000
1000
0000
0000
0000
0001
0000
,
0000
0000
0001
0000
0100
0000
0010
0000
,
1000
0000
0001
0000
0100
0000
0010
0000
,
0001
0000
1000
0000
0100
0000
0010
0000
,
1000
0000
0100
0000
0000
0000
1000
0000
,
1000
0000
1000
0000
0110
0000
1000
0000
,
1000
0000
0001
0000
0100
0000
0010
0000
,
1000
0000
0001
0000
0010
0000
0100
0000
,
1000
0000
0010
0000
0010
0000
0100
0000
,
0001
0000
1000
0000
0100
0000
1000
0000
,
0001
0000
0100
0000
0100
0000
0010
0000
,
1000
0000
0100
0000
0100
0000
0010
0000
,
1000
0000
0010
0000
0010
0000
0100
0000
,
1000
0000
0001
0000
0100
0000
0010
0000
,
0001
0000
1000
0000
0010
0000
1000
0000
,
0001
0000
1000
0000
0010
0000
1000
0000
,
1000
0000
0100
0000
0000
0000
0010
0000
,
0001
0000
0010
0000
0000
0000
0100
0000
,
1000
0000
0100
0000
0000
0000
1000
0000
,
1000
0000
0001
0000
0100
0000
0010
0000
,
0000
0000
1000
0000
0010
0000
1000
0000
,
0000
0000
0001
0000
0100
0000
0010
0000
,
1000
0000
0001
0000
0100
0000
0010
0000
,
0001
0000
1000
0000
0100
0000
0010
0000
,
1000
0000
0100
0000
0000
0000
1000
0000
,
0001
0000
0010
0000
0100
0000
0010
0000
,
0001
0000
0010
0000
0001
0000
0010
0000
,
1000
0000
0001
0000
0100
0000
0010
0000
,
1000
0000
0100
0000
0000
0000
1000
0000
,
0001
0000
0010
0000
0100
0000
0010
0000
,
1000
0000
0000
0000
0000
0000
0001
0000
,
0001
0000
0000
0000
0000
0000
1000
0000
,
0000
0000
0001
0000
1000
0000
0000
0000
,
0000
0000
1000
0000
0010
0000
1000
0000
,
0001
0000
0100
0000
0100
0000
0010
0000
,
1000
0000
0010
0000
0010
0000
0100
0000
,
1000
0000
0010
0000
0010
0000
0100
0000
,
0000
0000
1000
0000
0010
0000
1000
0000
,
0001
0000
1000
0000
0010
0000
1000
0000
,
1000
0000
0001
0000
0100
0000
0001
0000
,
1000
0000
0100
0000
0000
0000
0010
0000
,
1000
0000
0010
0000
0000
0000
0100
0000
,
0001
0000
0010
0000
0001
0000
0010
0000
,
1000
0000
0010
0000
1000
0000
0010
0000
,
1000
0000
0100
0000
0000
0000
0010
0000
,
0000
0000
0001
0000
0100
0000
0010
0000
,
1000
0000
0001
0000
0100
0000
0010
0000
,
1000
0000
0001
0000
0010
0000
0100
0000
,
1000
0000
0100
0000
0000
0000
1000
0000
,
0001
0000
0100
0000
0010
0000
0000
0000
,
#NOTES:
     dance-single:
     Standard:
     medium:
     2:
     :
0000
0000
0000
0000
0000
0000
0000
0000
,
0000
0000
0000
0000
0000
0000
1000
0000
,
0000
0000
1000
0000
0010
0000
0100
0000
,
0000
0000
1000
0000
0100
0000
0010
0000
,
0000
0000
1000
0000
0000
0000
0100
0000
,
0000
0000
0001
0000
1000
0000
0010
0000
,
0000
0000
0001
0000
0010
0000
0001
0000
,
0000
0000
1000
0000
0010
0000
1000
0000
,
0000
0000
1000
0000
0000
0000
0100
0000
,
0001
0000
1000
0000
0000
0000
0010
0000
,
0001
0000
0010
0000
0001
0000
0000
0000
,
0001
0000
0100
0000
0001
0000
0000
0000
,
0000
0000
0001
0000
0000
0000
0100
0000
,
0000
0000
0001
0000
0010
0000
0100
0000
,
0001
0000
1000
0000
0001
0000
0000
0000
,
1000
0000
0001
0000
1000
0000
0000
0000
,
0001
0000
0100
0000
0000
0000
0001
0000
,
0000
0000
0001
0000
1010
0000
0001
0000
,
0001
0000
1000
0000
0001
0000
0000
0000
,
0001
0000
1000
0000
0001
0000
0000
0000
,
0001
0000
1000
0000
0000
0000
0100
0000
,
0000
0000
0001
0000
0010
0000
0100
0000
,
0000
0000
0001
0000
0001
0000
0100
0000
,
0000
0000
1000
0000
1000
0000
0010
0000
,
0000
0000
0001
0000
0001
0000
0010
0000
,
0001
0000
1000
0000
0001
0000
0000
0000
,
0000
0000
0001
0000
0010
0000
0001
0000
,
0000
0000
0001
0000
0010
0000
0001
0000
,
0001
0000
1000
0000
0000
0000
0010
0000
,
0001
0000
1000
0000
0000
0000
0010
0000
,
0001
0000
0100
0000
0000
0000
0001
0000
,
0001
0000
1000
0000
0001
0000
0000
0000
,
0000
0000
1000
0000
0000
0000
0100
0000
,
0000
0000
0001
0000
0010
0000
0100
0000
,
0001
0000
1000
0000
0001
0000
0000
0000
,
1000
0000
0001
0000
1000
0000
0000
0000
,
0001
0000
0100
0000
0000
0000
0001
0000
,
0000
0000
0001
0000
0010
0000
0100
0000
,
0001
0000
0100
0000
1000
0000
0000
0000
,
0001
0000
1000
0000
0001
0000
0000
0000
,
0001
0000
0100
0000
0000
0000
0001
0000
,
0000
0000
0001
0000
0010
0000
0100
0000
,
1000
0000
0000
0000
0000
0000
0100
0000
,
1000
0000
0000
0000
0000
0000
0100
0000
,
0000
0000
1000
0000
0100
0000
0000
0000
,
0000
0000
1000
0000
0010
0000
0100
0000
,
0000
0000
0001
0000
0001
0000
0100
0000
,
1000
0000
0100
0000
0100
0000
0010
0000
,
0001
0000
1000
0000
0000
0000
0100
0000
,
0000
0000
1000
0000
0000
0000
0100
0000
,
0000
0000
0001
0000
0010
0000
0001
0000
,
0000
0000
1000
0000
0010
0000
1000
0000
,
0001
0000
1000
0000
0000
0000
0010
0000
,
1000
0000
0001
0000
0000
0000
0010
0000
,
0001
0000
0100
0000
1000
0000
0000
0000
,
1000
0000
0010
0000
0001
0000
0000
0000
,
0001
0000
1000
0000
0000
0000
0010
0000
,
0000
0000
0001
0000
0010
0000
0100
0000
,
0001
0000
1000
0000
0001
0000
0000
0000
,
1000
0000
0001
0000
1000
0000
0000
0000
,
0001
0000
0100
0000
0000
0000
0001
0000
,
0000
0000
0001
0000
0100
0000
0000
0000
,
#NOTES:
     dance-single:
     Heavy:
     hard:
     2:
     :
0000
0000
0000
0000
0000
0000
0000
0000
,
0000
0000
0000
0000
0000
0000
1000
0000
,
0000
0000
0001
0000
0010
0000
0100
0000
,
0000
0000
0001
0000
0010
0000
0100
0000
,
0000
0000
1000
0000
0000
0000
0010
0000
,
0000
0000
1000
0000
0100
0000
0010
0000
,
0000
0000
0001
0000
0100
0000
0001
0000
,
0000
0000
1000
0000
0010
0000
1000
0000
,
0000
0000
1000
0000
0000
0000
0010
0000
,
0001
0000
0100
0000
0000
0000
0001
0000
,
1000
0000
0001
0000
0010
0000
0000
0000
,
1000
0000
0001
0000
0010
0000
0000
0000
,
0000
0000
1000
0000
0000
0000
0010
0000
,
0000
0000
0001
0000
0100
0000
0010
0000
,
1000
0000
0001
0000
0100
0000
0000
0000
,
0001
0000
1000
0000
0010
0000
0000
0000
,
0001
0000
0100
0000
0000
0000
0001
0000
,
0000
0000
1000
0000
0101
0000
0001
0000
,
1000
0000
0001
0000
0100
0000
0000
0000
,
0001
0000
1000
0000
0100
0000
0000
0000
,
0001
0000
0010
0000
0000
0000
0001
0000
,
0000
0000
0001
0000
0100
0000
0010
0000
,
0000
0000
1000
0000
1000
0000
0001
0000
,
0000
0000
1000
0000
1000
0000
0001
0000
,
0000
0000
1000
0000
1000
0000
0001
0000
,
1000
0000
0001
0000
0100
0000
0000
0000
,
0000
0000
0001
0000
0100
0000
0001
0000
,
0000
0000
1000
0000
0100
0000
1000
0000
,
0001
0000
0100
0000
0000
0000
0001
0000
,
1000
0000
0100
0000
0000
0000
1000
0000
,
0001
0000
0100
0000
0000
0000
0001
0000
,
1000
0000
0001
0000
0100
0000
0000
0000
,
0000
0000
1000
0000
0000
0000
0010
0000
,
0000
0000
0001
0000
0100
0000
0010
0000
,
1000
0000
0001
0000
0100
0000
0000
0000
,
1000
0000
0001
0000
0100
0000
0000
0000
,
0001
0000
0100
0000
0000
0000
0001
0000
,
0000
0000
0001
0000
0100
0000
0010
0000
,
0001
0000
0100
0000
0001
0000
0000
0000
,
1000
0000
0001
0000
0100
0000
0000
0000
,
0001
0000
0100
0000
0000
0000
0001
0000
,
0000
0000
0001
0000
0100
0000
0010
0000
,
0001
0000
0000
0000
0000
0000
0010
0000
,
0001
0000
0000
0000
0000
0000
0010
0000
,
0000
0000
1000
0000
0010
0000
0000
0000
,
0000
0000
0001
0000
0010
0000
0001
0000
,
0000
0000
1000
0000
1000
0000
0001
0000
,
0001
0000
0010
0000
0010
0000
0100
0000
,
0001
0000
0010
0000
0000
0000
0001
0000
,
0000
0000
1000
0000
0000
0000
0010
0000
,
0000
0000
0001
0000
0100
0000
0001
0000
,
0000
0000
0001
0000
0100
0000
0001
0000
,
0001
0000
0100
0000
0000
0000
0001
0000
,
1000
0000
0010
0000
0000
0000
1000
0000
,
0001
0000
0100
0000
0001
0000
0000
0000
,
1000
0000
0100
0000
1000
0000
0000
0000
,
0001
0000
0100
0000
0000
0000
0001
0000
,
0000
0000
0001
0000
0100
0000
0010
0000
,
1000
0000
0001
0000
0100
0000
0000
0000
,
1000
0000
0001
0000
0100
0000
0000
0000
,
0001
0000
0100
0000
0000
0000
0001
0000
,
0000
0000
1000
0000
0100
0000
0000
0000
,
