#VERSION:0.83;
#TITLE:Tyla - Truth or Dare (Lyrics);
#SUBTITLE:;
#ARTIST:Dancing Monkeys Project;
#TITLETRANSLIT:;
#SUBTITLETRANSLIT:;
#ARTISTTRANSLIT:;
#GENRE:;
#ORIGIN:;
#CREDIT:Gorilla v1.1.3 (Dancing Monkeys v1.06);
#BANNER:;
#BACKGROUND:;
#PREVIEWVID:;
#JACKET:;
#CDIMAGE:;
#DISCIMAGE:;
#LYRICSPATH:;
#CDTITLE:;
#MUSIC:Tyla - Truth or Dare (Lyrics).mp3;
#OFFSET:-1.341451;
#SAMPLESTART:53.064804;
#SAMPLELENGTH:12.000000;
#SELECTABLE:YES;
#BPMS:0.000=116.002;
#STOPS:;
#DELAYS:;
#WARPS:;
#TIMESIGNATURES:0.000=4=4;
#TICKCOUNTS:0.000=4;
#COMBOS:0.000=1;
#SPEEDS:0.000=1.000=0.000=0;
#SCROLLS:0.000=1.000;
#FAKES:;
#LABELS:0.000=Song Start;
#BGCHANGES:;
#KEYSOUNDS:;
#ATTACKS:
;

//---------------dance-single - Basic----------------
#NOTEDATA:;
#CHARTNAME:Basic;
#STEPSTYPE:dance-single;
#DESCRIPTION:Basic;
#CHARTSTYLE:;
#DIFFICULTY:Easy;
#METER:3;
#RADARVALUES:0.224796,0.197680,0.000000,0.000000,0.000000,300.000000,300.000000,0.000000,0.000000,0.000000,0.000000,0.000000,0.000000,0.000000,0.224796,0.197680,0.000000,0.000000,0.000000,300.000000,300.000000,0.000000,0.000000,0.000000,0.000000,0.000000,0.000000,0.000000;
#CREDIT:Basic;
#NOTES:
0001
1000
0100
0100
,
1000
0000
0001
0100
,
0001
1000
0100
0100
,
0010
0010
0001
0001
,
0001
1000
1000
0100
,
0100
0010
0010
1000
,
1000
1000
0001
0001
,
0001
0010
0010
0001
,
0001
1000
0100
0100
,
1000
0001
0001
0100
,
0001
1000
0100
0100
,
1000
1000
0001
0001
,
0001
0100
0100
0100
,
0100
0000
1000
0100
,
0001
0000
1000
0100
,
0001
0000
1000
0100
,
1000
0000
0001
0100
,
0100
0000
0100
1000
,
0001
1000
0100
0100
,
0001
1000
0100
0000
,
1000
0001
0010
0010
,
1000
1000
0100
1000
,
1000
1000
0001
0100
,
1000
0000
0001
0100
,
0001
1000
0100
0100
,
1000
0000
0001
0100
,
1000
0000
0001
0100
,
0001
0100
0010
1000
,
1000
1000
0001
0100
,
0001
0000
1000
0100
,
0001
0000
1000
0010
,
0001
0010
0100
0001
,
1000
0000
0001
0100
,
0100
1000
0100
1000
,
1000
1000
0001
0100
,
0001
0010
0001
0001
,
1000
0010
0001
0100
,
1000
0100
0001
0010
,
0001
1000
0100
0100
,
1000
0010
0001
0100
,
0001
1000
0100
0100
,
1000
1000
0100
0100
,
0001
0001
0100
0100
,
0000
0000
0000
0010
,
0001
0000
0001
0100
,
0100
1000
0100
1000
,
1000
1000
0100
0100
,
1000
0000
0001
0100
,
0001
1000
0100
0100
,
1000
1000
0100
0001
,
0001
1000
0000
0100
,
0001
0010
0001
0001
,
0001
1000
0100
0100
,
1000
1000
1000
0100
,
1000
1000
1000
0010
,
0010
0010
0100
0100
,
1000
1000
0001
0100
,
1000
0000
0001
0010
,
1000
1000
0001
0001
,
0001
0000
1000
0010
,
0001
1000
0000
0100
,
1000
0000
0001
0100
,
0001
0000
1000
0010
,
0001
0000
1000
0010
,
0001
1000
0000
0100
,
1000
0000
0001
0100
,
0001
1000
0000
0100
,
0001
0010
0001
0001
,
1000
0000
0001
0100
,
1000
0000
0001
0010
,
0001
0000
1000
0100
,
0001
0010
0001
0001
,
1000
0000
0001
0100
,
0001
0000
1000
0010
,
0001
0000
1000
0100
,
1000
0000
0001
0100
,
0001
0001
1000
0100
,
0001
0001
1000
0010
,
0001
0010
0010
0010
,
1000
1000
0100
0100
,
0001
0001
0100
0100
,
1000
1000
0001
0100
,
0001
1000
1000
0100
,
1000
0000
0001
0100
;

//---------------dance-single - Basic----------------
#NOTEDATA:;
#CHARTNAME:;
#STEPSTYPE:dance-single;
#DESCRIPTION:Basic;
#CHARTSTYLE:;
#DIFFICULTY:Beginner;
#METER:3;
#RADARVALUES:0.122139,0.109494,0.000000,0.000000,0.000000,163.000000,163.000000,0.000000,0.000000,0.000000,0.000000,0.000000,0.000000,0.000000,0.122139,0.109494,0.000000,0.000000,0.000000,163.000000,163.000000,0.000000,0.000000,0.000000,0.000000,0.000000,0.000000,0.000000;
#CREDIT:;
#NOTES:
// measure 0
0001
0000
0100
0000
,  // measure 1
1000
0000
0001
0000
,  // measure 2
0001
0000
0100
0000
,  // measure 3
0010
0000
0001
0000
,  // measure 4
0001
0000
1000
0000
,  // measure 5
0100
0000
0010
0000
,  // measure 6
1000
0000
0001
0000
,  // measure 7
0001
0000
0010
0000
,  // measure 8
0001
0000
0100
0000
,  // measure 9
1000
0000
0001
0000
,  // measure 10
0001
0000
0100
0000
,  // measure 11
1000
0000
0001
0000
,  // measure 12
0001
0000
0100
0000
,  // measure 13
0100
0000
1000
0000
,  // measure 14
0001
0000
1000
0000
,  // measure 15
0001
0000
1000
0000
,  // measure 16
1000
0000
0001
0000
,  // measure 17
0100
0000
0100
0000
,  // measure 18
0001
0000
0100
0000
,  // measure 19
0001
0000
0100
0000
,  // measure 20
1000
0000
0010
0000
,  // measure 21
1000
0000
0100
0000
,  // measure 22
1000
0000
0001
0000
,  // measure 23
1000
0000
0001
0000
,  // measure 24
0001
0000
0100
0000
,  // measure 25
1000
0000
0001
0000
,  // measure 26
1000
0000
0001
0000
,  // measure 27
0001
0000
0010
0000
,  // measure 28
1000
0000
0001
0000
,  // measure 29
0001
0000
1000
0000
,  // measure 30
0001
0000
1000
0000
,  // measure 31
0001
0000
0100
0000
,  // measure 32
1000
0000
0001
0000
,  // measure 33
0100
0000
0100
0000
,  // measure 34
1000
0000
0001
0000
,  // measure 35
0001
0000
0001
0000
,  // measure 36
1000
0000
0001
0000
,  // measure 37
1000
0000
0001
0000
,  // measure 38
0001
0000
0100
0000
,  // measure 39
1000
0000
0001
0000
,  // measure 40
0001
0000
0100
0000
,  // measure 41
1000
0000
0100
0000
,  // measure 42
0001
0000
0100
0000
,  // measure 43
0000
0000
0000
0010
,  // measure 44
0000
0000
0001
0000
,  // measure 45
0100
0000
0100
0000
,  // measure 46
1000
0000
0100
0000
,  // measure 47
1000
0000
0001
0000
,  // measure 48
0001
0000
0100
0000
,  // measure 49
1000
0000
0100
0000
,  // measure 50
0001
0000
0000
0100
,  // measure 51
0000
0010
0000
0001
,  // measure 52
0000
1000
0000
0100
,  // measure 53
0000
1000
0000
0100
,  // measure 54
0000
1000
0000
0010
,  // measure 55
0000
0010
0000
0100
,  // measure 56
0000
1000
0000
0100
,  // measure 57
0000
0000
0001
0000
,  // measure 58
1000
0000
0001
0000
,  // measure 59
0001
0000
1000
0000
,  // measure 60
0001
1000
0000
0100
,  // measure 61
0000
0000
0001
0000
,  // measure 62
0001
0000
1000
0000
,  // measure 63
0001
0000
1000
0000
,  // measure 64
0001
0000
0000
0100
,  // measure 65
0000
0000
0001
0000
,  // measure 66
0001
0000
0000
0100
,  // measure 67
0000
0010
0000
0001
,  // measure 68
0000
0000
0001
0000
,  // measure 69
1000
0000
0001
0000
,  // measure 70
0001
0000
1000
0000
,  // measure 71
0001
0000
0001
0000
,  // measure 72
1000
0000
0001
0000
,  // measure 73
0001
0000
1000
0000
,  // measure 74
0001
0000
1000
0000
,  // measure 75
1000
0000
0001
0000
,  // measure 76
0001
0000
1000
0000
,  // measure 77
0001
0000
1000
0000
,  // measure 78
0001
0000
0010
0000
,  // measure 79
1000
0000
0100
0000
,  // measure 80
0001
0000
0100
0000
,  // measure 81
1000
0000
0001
0000
,  // measure 82
0001
0000
1000
0000
,  // measure 83
1000
0000
0001
0000
;
