#VERSION:0.83;
#TITLE:True Jackson VP;
#SUBTITLE:;
#ARTIST:Dancing Monkeys Project;
#TITLETRANSLIT:;
#SUBTITLETRANSLIT:;
#ARTISTTRANSLIT:;
#GENRE:;
#ORIGIN:;
#CREDIT:Gorilla v1.1.3 (Dancing Monkeys v1.06);
#BANNER:;
#BACKGROUND:;
#PREVIEWVID:;
#JACKET:;
#CDIMAGE:;
#DISCIMAGE:;
#LYRICSPATH:;
#CDTITLE:;
#MUSIC:True Jackson VP.mp3;
#OFFSET:-0.112562;
#SAMPLESTART:49.702129;
#SAMPLELENGTH:12.000000;
#SELECTABLE:YES;
#BPMS:0.000=120.993;
#STOPS:;
#DELAYS:;
#WARPS:;
#TIMESIGNATURES:0.000=4=4;
#TICKCOUNTS:0.000=4;
#COMBOS:0.000=1;
#SPEEDS:0.000=1.700=0.000=0;
#SCROLLS:0.000=1.000;
#FAKES:;
#LABELS:0.000=Song Start;
#BGCHANGES:;
#KEYSOUNDS:;
#ATTACKS:
;

//---------------dance-single - Basic----------------
#NOTEDATA:;
#CHARTNAME:Basic;
#STEPSTYPE:dance-single;
#DESCRIPTION:Basic;
#CHARTSTYLE:;
#DIFFICULTY:Easy;
#METER:3;
#RADARVALUES:0.262917,0.225628,0.000000,0.007865,0.000000,234.000000,234.000000,0.000000,1.000000,0.000000,0.000000,0.000000,0.000000,0.000000,0.262917,0.225628,0.000000,0.007865,0.000000,234.000000,234.000000,0.000000,1.000000,0.000000,0.000000,0.000000,0.000000,0.000000;
#CREDIT:Basic;
#NOTES:
// measure 0
0000
0001
0000
1000
,  // measure 1
0000
0001
0000
1000
,  // measure 2
0000
0001
0000
1000
,  // measure 3
0000
0001
0000
1000
,  // measure 4
0001
1000
0100
0100
,  // measure 5
1000
0100
0100
1000
,  // measure 6
0001
1000
0100
0100
,  // measure 7
1000
0100
1000
1000
,  // measure 8
0001
0100
0001
0001
,  // measure 9
1000
0010
0010
0010
,  // measure 10
1000
1000
0010
0010
,  // measure 11
1000
0001
0010
0000
,  // measure 12
0001
1000
1000
1000
,  // measure 13
0001
0010
0010
0100
,  // measure 14
1000
0010
0100
0010
,  // measure 15
0001
0010
0100
0010
,  // measure 16
1000
0001
1000
0010
,  // measure 17
1000
0100
0010
0010
,  // measure 18
0001
0100
0010
0010
,  // measure 19
1000
0000
0000
0001
,  // measure 20
1000
1000
0001
0100
,  // measure 21
0001
1000
0001
0010
,  // measure 22
0001
1000
0001
0010
,  // measure 23
1000
1000
0001
0100
,  // measure 24
0001
0001
1000
0010
,  // measure 25
0001
0001
1000
0100
,  // measure 26
1000
1000
0001
0100
,  // measure 27
1000
0001
0001
0100
,  // measure 28
1000
1000
0001
0100
,  // measure 29
1000
1000
0001
0010
,  // measure 30
1000
1000
0001
0100
,  // measure 31
2000
0000
0000
0000
,  // measure 32
3000
0001
0000
1000
,  // measure 33
0000
0001
0000
1000
,  // measure 34
0000
0001
0000
1000
,  // measure 35
0000
0001
0000
0100
,  // measure 36
0001
0001
0010
0010
,  // measure 37
0001
0001
0100
0100
,  // measure 38
0001
0001
0100
0100
,  // measure 39
0001
0001
0100
0100
,  // measure 40
1000
1000
0100
0100
,  // measure 41
1000
1000
0010
0010
,  // measure 42
0001
1000
1000
1000
,  // measure 43
1000
0001
0100
0100
,  // measure 44
0001
0010
0100
0010
,  // measure 45
0010
0001
0100
0001
,  // measure 46
0001
0100
0010
0100
,  // measure 47
0001
1000
1000
0010
,  // measure 48
1000
0001
1000
0001
,  // measure 49
1000
0001
1000
0001
,  // measure 50
1000
1000
1000
0010
,  // measure 51
0001
0001
0010
0010
,  // measure 52
1000
1000
0001
0100
,  // measure 53
0001
0001
1000
0010
,  // measure 54
0001
0001
1000
0100
,  // measure 55
0001
1000
1000
0100
,  // measure 56
1000
1000
0001
0100
,  // measure 57
1000
1000
0001
0010
,  // measure 58
0001
0001
1000
0010
,  // measure 59
1000
0001
0001
0100
,  // measure 60
1000
1000
0001
0100
,  // measure 61
1000
0001
0001
0100
,  // measure 62
0001
0001
0010
0010
,  // measure 63
1000
1000
0010
0010
;

//---------------dance-single - Standard----------------
#NOTEDATA:;
#CHARTNAME:Standard;
#STEPSTYPE:dance-single;
#DESCRIPTION:Standard;
#CHARTSTYLE:;
#DIFFICULTY:Medium;
#METER:5;
#RADARVALUES:0.322466,0.339966,0.125841,0.007865,0.000000,287.000000,271.000000,16.000000,1.000000,0.000000,0.000000,0.000000,0.000000,0.000000,0.322466,0.339966,0.125841,0.007865,0.000000,287.000000,271.000000,16.000000,1.000000,0.000000,0.000000,0.000000,0.000000,0.000000;
#CREDIT:Standard;
#NOTES:
0000
0000
1000
0000
0000
0000
0000
0000
,
0000
0000
1000
0000
0000
0000
0000
0000
,
0000
0000
1000
0000
0000
0000
0000
0000
,
0000
0000
0001
0000
0000
0000
0000
0000
,
1010
0000
0001
0010
0100
0000
0010
0000
,
0110
0000
1000
0001
0000
1000
0001
0000
,
1010
0000
0001
0010
0100
0000
0010
0000
,
0110
0000
1000
0001
0000
1000
0001
0000
,
0110
0000
1000
0001
0000
1000
0001
0000
,
0110
0000
0001
1000
0000
0001
1000
0000
,
0101
0000
0001
0010
0001
0000
0010
0000
,
0101
0000
0001
0010
0001
0000
0010
0000
,
1000
0000
0001
0000
0010
0000
0001
0000
,
1000
0000
0010
0000
1000
0000
0100
0000
,
0001
0000
1000
0010
0100
0000
0001
0000
,
1000
0000
0010
1000
0001
0000
0010
0000
,
0011
0000
0001
0000
0010
0000
0001
0000
,
0001
0000
0100
0000
0010
0000
0100
0000
,
0001
0000
0100
0000
0010
0000
0100
0000
,
0001
0000
0100
0000
0010
1000
1000
0000
,
1000
0001
0001
0000
0100
0000
0010
0000
,
0001
0001
0010
0000
0100
0010
0100
0000
,
0001
0001
0100
0000
0010
0100
0010
0000
,
1000
0001
0001
0000
0100
0000
0010
0000
,
1000
0001
0001
0000
0100
0000
0010
0000
,
1000
0001
0001
0000
0010
0000
0100
0000
,
1000
0001
0001
0000
0100
0000
0010
0000
,
0001
1000
0010
0100
0100
0000
0001
0000
,
1000
0001
0001
0000
0100
0000
0010
0000
,
0001
1000
1000
0000
0100
0000
0010
0000
,
1000
0001
0001
0000
0100
0000
0010
0000
,
2000
0000
0010
0000
3000
0000
0000
0000
,
0000
0000
1000
0000
0000
0000
0000
0000
,
0000
0000
0001
0000
0000
0000
0000
0000
,
0000
0000
0001
0000
0000
0000
0000
0000
,
0000
0000
1000
0000
1000
0000
0010
0000
,
0001
0000
0001
0010
0100
1000
0000
0000
,
1010
0000
0001
0010
0100
0000
0010
0000
,
0001
0000
0010
0001
1000
0000
0100
0000
,
1010
0000
0001
0010
0100
0000
0010
0000
,
1010
0000
0001
0010
0100
0000
0010
0000
,
0101
0000
1000
0100
0010
0000
0100
0000
,
1010
0000
0001
0010
0100
0000
0010
0000
,
0101
0000
1000
0100
0010
0000
0100
0000
,
1000
0000
0010
1000
0001
0000
0010
0000
,
1000
0000
0100
0000
0010
0000
0100
0000
,
1000
0000
0010
0000
1000
0000
0100
0000
,
1000
0000
0001
0000
0010
0000
0001
0000
,
0001
0000
1000
0000
0010
0000
1000
0000
,
0001
0000
0100
0000
0010
0000
0100
0000
,
1000
0000
0001
0000
0010
0000
0001
0000
,
0001
0000
0100
0000
0010
1000
1000
0000
,
1000
0001
0001
0000
0100
0000
0010
0000
,
0001
1000
1000
0000
0010
0000
0100
0000
,
1000
0001
0001
0000
0100
0000
0010
0000
,
1010
0000
0001
0010
0100
0000
0010
0000
,
1000
0001
0001
0000
0100
0000
0010
0000
,
1000
0001
0001
0000
0010
0000
0100
0000
,
1000
0001
0001
0000
0100
0000
0010
0000
,
0001
1000
0010
0100
0100
0000
0001
0000
,
1000
0001
0001
0000
0100
0000
0010
0000
,
0001
1000
0010
0100
0100
0000
0001
0000
,
;

//---------------dance-single - Heavy----------------
#NOTEDATA:;
#CHARTNAME:Heavy;
#STEPSTYPE:dance-single;
#DESCRIPTION:Heavy;
#CHARTSTYLE:;
#DIFFICULTY:Hard;
#METER:6;
#RADARVALUES:0.357297,0.364249,0.125841,0.007865,0.000000,318.000000,302.000000,16.000000,1.000000,0.000000,0.000000,0.000000,0.000000,0.000000,0.357297,0.364249,0.125841,0.007865,0.000000,318.000000,302.000000,16.000000,1.000000,0.000000,0.000000,0.000000,0.000000,0.000000;
#CREDIT:Heavy;
#NOTES:
0000
0000
1000
0000
0000
0000
0000
0000
,
0000
0000
1000
0000
0000
0000
0000
0000
,
0000
0000
1000
0000
0000
0000
0000
0000
,
0000
0000
1000
0000
0000
0000
0000
0000
,
1001
0000
0001
0100
0010
0000
0100
0000
,
1001
0000
0100
0010
0000
0100
0001
0000
,
1001
0000
0001
0100
0010
0000
0100
0000
,
1001
0000
0100
0010
0000
0100
0001
0000
,
1001
0000
0010
0100
0000
0010
1000
0000
,
1001
0000
0100
0010
0000
0100
0001
0000
,
1100
0000
0100
0010
0100
0000
0000
0000
,
0011
0000
0010
0100
0010
0000
0000
0000
,
1000
0000
0010
0000
0100
0001
0100
0000
,
1000
0000
0100
0000
1000
0000
0010
0001
,
1000
0000
0001
0100
0001
1000
0010
0000
,
0001
0100
0001
0100
0001
0000
0010
0000
,
0110
0000
0100
0000
0010
0001
1000
0000
,
0001
0000
1000
0000
0100
0000
1000
0000
,
0001
0000
1000
0000
0010
0000
1000
0000
,
0001
0000
1000
0000
0010
1000
1000
0000
,
0001
0100
0100
0000
0001
0010
0100
0000
,
1000
1000
0001
0100
0010
1000
0010
0000
,
1000
1000
0001
0100
0010
1000
0010
0000
,
0001
0100
0100
0000
0001
0010
0100
0000
,
0001
0010
0010
0000
0001
0100
0010
0000
,
1000
0100
0100
0000
1000
0010
0100
0000
,
1000
0100
0100
0000
1000
0010
0100
0000
,
0001
0100
0001
0100
0100
0010
0100
0000
,
0001
0100
0100
0000
0001
0010
0100
0000
,
1000
0100
0100
0000
1000
0010
0100
0000
,
1000
0100
0100
0000
1000
0010
0100
0000
,
0002
0000
1000
0000
0003
0000
0000
0000
,
0000
0000
1000
0000
0000
0000
0000
0000
,
0000
0000
0001
0000
0000
0000
0000
0000
,
0000
0000
1000
0000
0000
0000
0000
0000
,
1000
0000
0100
0000
0100
0000
0010
0000
,
0001
0000
0001
0010
0100
1000
0000
0000
,
1001
0000
0001
0100
0010
0000
0100
0000
,
0001
0100
0010
0100
0001
0000
0010
0000
,
1001
0000
0001
0100
0010
0000
0100
0000
,
1001
0000
1000
0100
0010
0000
0100
0000
,
1001
0000
0001
0100
0010
0000
0100
0000
,
1001
0000
0001
0100
0010
0000
0100
0000
,
1001
0000
0001
0010
0100
0000
0010
0000
,
0001
0100
0001
0100
0001
0000
0010
0000
,
0001
0000
0100
0000
0001
0000
0100
0001
,
1000
0000
0100
0000
1000
0000
0010
0001
,
1000
0000
0010
0000
0100
0001
0100
0000
,
0001
0000
0010
0000
0100
1000
0100
0000
,
0001
0000
1000
0000
0100
0000
1000
0000
,
1000
0000
0010
0000
0100
0001
0100
0000
,
0001
0000
1000
0000
0010
1000
1000
0000
,
0001
0100
0100
0000
0001
0010
0100
0000
,
1000
0100
0100
0000
1000
0010
0100
0000
,
0001
0100
0100
0000
0001
0010
0100
0000
,
1001
0000
0001
0100
0010
0000
0100
0000
,
0001
0100
0100
0000
0001
0010
0100
0000
,
1000
0100
0100
0000
1000
0010
0100
0000
,
1000
0100
0100
0000
1000
0010
0100
0000
,
0001
0100
0001
0100
0100
0010
0100
0000
,
0001
0100
0100
0000
0001
0010
0100
0000
,
0001
0100
0001
0100
0100
0010
0100
0000
,
;
