#VERSION:0.83;
#TITLE:Britney Spears, Ginuwine - Toxic X Pony (TikTok Mashup) [Lyrics];
#SUBTITLE:;
#ARTIST:Dancing Monkeys Project;
#TITLETRANSLIT:;
#SUBTITLETRANSLIT:;
#ARTISTTRANSLIT:;
#GENRE:;
#ORIGIN:;
#CREDIT:Gorilla v1.1.3 (Dancing Monkeys v1.06);
#BANNER:maxresdefault (1).png;
#BACKGROUND:maxresdefault.png;
#PREVIEWVID:;
#JACKET:;
#CDIMAGE:;
#DISCIMAGE:;
#LYRICSPATH:;
#CDTITLE:;
#MUSIC:Britney Spears, Ginuwine - Toxic X Pony (TikTok Mashup) [Lyrics].mp3;
#OFFSET:-0.875250;
#SAMPLESTART:46.190250;
#SAMPLELENGTH:12.000000;
#SELECTABLE:YES;
#BPMS:0.000=142.999;
#STOPS:;
#DELAYS:;
#WARPS:;
#TIMESIGNATURES:0.000=4=4;
#TICKCOUNTS:0.000=4;
#COMBOS:0.000=1;
#SPEEDS:0.000=1.000=0.000=0;
#SCROLLS:0.000=1.000;
#FAKES:;
#LABELS:0.000=Song Start;
#BGCHANGES:;
#KEYSOUNDS:;
#ATTACKS:
;

//---------------dance-single - Basic----------------
#NOTEDATA:;
#CHARTNAME:Basic;
#STEPSTYPE:dance-single;
#DESCRIPTION:Basic;
#CHARTSTYLE:;
#DIFFICULTY:Easy;
#METER:3;
#RADARVALUES:0.138489,0.131276,0.000000,0.005049,0.000000,192.000000,192.000000,0.000000,1.000000,0.000000,0.000000,0.000000,0.000000,0.000000,0.138489,0.131276,0.000000,0.005049,0.000000,192.000000,192.000000,0.000000,1.000000,0.000000,0.000000,0.000000,0.000000,0.000000;
#CREDIT:Basic;
#NOTES:
// measure 0
1000
0000
0001
0000
,  // measure 1
1000
0000
0100
0000
,  // measure 2
1000
0000
0100
0000
,  // measure 3
0001
0000
0010
0000
,  // measure 4
1000
0000
0001
0000
,  // measure 5
0000
0100
0000
0000
,  // measure 6
0001
0000
1000
0000
,  // measure 7
0010
0000
0100
0000
,  // measure 8
1000
0000
0100
0000
,  // measure 9
1000
0000
0010
0000
,  // measure 10
0001
0000
0010
0000
,  // measure 11
1000
0000
0001
0000
,  // measure 12
0000
0001
0000
0000
,  // measure 13
0010
0000
1000
0000
,  // measure 14
0010
0000
0001
0000
,  // measure 15
1000
0000
0010
0000
,  // measure 16
1000
0000
0001
0000
,  // measure 17
1000
0000
0010
0000
,  // measure 18
1000
0000
0001
0000
,  // measure 19
1000
0000
0010
0000
,  // measure 20
1000
0000
0001
0000
,  // measure 21
1000
0000
0001
0000
,  // measure 22
1000
0000
0100
0000
,  // measure 23
1000
0000
0001
0000
,  // measure 24
0100
0000
0100
0000
,  // measure 25
1000
0000
0010
0000
,  // measure 26
1000
0000
0100
0000
,  // measure 27
1000
0000
0010
0000
,  // measure 28
1000
0000
0100
0000
,  // measure 29
0010
0000
1000
0000
,  // measure 30
1000
0000
0010
0000
,  // measure 31
1000
0000
0100
0000
,  // measure 32
1000
0000
0001
0000
,  // measure 33
0001
0000
0010
0000
,  // measure 34
1000
0000
0001
0000
,  // measure 35
0000
0001
0000
0000
,  // measure 36
0000
0000
1000
0000
,  // measure 37
0001
0000
1000
0000
,  // measure 38
1000
0000
0001
0000
,  // measure 39
1000
0000
0100
0000
,  // measure 40
1000
0000
0001
0000
,  // measure 41
0001
0000
0010
0000
,  // measure 42
1000
0000
0001
0000
,  // measure 43
0000
0001
0000
0000
,  // measure 44
1000
0000
0000
0100
,  // measure 45
0000
0100
0000
0001
,  // measure 46
0000
0000
0001
0000
,  // measure 47
1000
0000
0100
0000
,  // measure 48
1000
0000
0001
0000
,  // measure 49
0001
0000
0010
0000
,  // measure 50
1000
0000
0001
0000
,  // measure 51
0000
0001
0000
0000
,  // measure 52
1000
0000
1000
0000
,  // measure 53
1000
0000
0001
0000
,  // measure 54
1000
0000
0010
0000
,  // measure 55
1000
0000
0001
0000
,  // measure 56
1000
0000
1000
0000
,  // measure 57
1000
0000
0001
0000
,  // measure 58
1000
0000
0010
0000
,  // measure 59
1000
0000
0001
0000
,  // measure 60
1000
0000
0100
0000
,  // measure 61
1000
0000
0001
0000
,  // measure 62
1000
0000
0100
0000
,  // measure 63
1000
0000
0001
0000
,  // measure 64
0001
0000
0010
0000
,  // measure 65
1000
0000
0001
0000
,  // measure 66
0002
0000
0000
0000
,  // measure 67
0003
0000
1000
0000
,  // measure 68
0000
0001
0000
0001
,  // measure 69
0000
0000
0001
0000
,  // measure 70
1000
0000
0100
0000
,  // measure 71
1000
0000
0001
0000
,  // measure 72
0001
0000
0010
0000
,  // measure 73
1000
0000
0001
0000
,  // measure 74
0000
0001
0000
0000
,  // measure 75
1000
0000
0000
0100
,  // measure 76
0000
0100
0000
0001
,  // measure 77
0000
0000
0001
0000
,  // measure 78
1000
0000
0100
0000
,  // measure 79
1000
0000
0001
0000
,  // measure 80
0001
0000
0010
0000
,  // measure 81
1000
0000
0001
0000
,  // measure 82
0000
0001
0000
0000
,  // measure 83
0000
1000
0000
0001
,  // measure 84
0000
0000
0100
0000
,  // measure 85
0001
0000
0010
0000
,  // measure 86
1000
0000
0001
0000
,  // measure 87
0000
0001
0000
0000
,  // measure 88
1000
0000
0001
0000
,  // measure 89
0001
0000
0010
0000
,  // measure 90
1000
0000
0001
0000
,  // measure 91
0000
0001
0000
0000
,  // measure 92
1000
0000
0100
0000
,  // measure 93
0010
0000
1000
0000
,  // measure 94
0001
0000
0100
0001
,  // measure 95
0000
0001
0000
0000
,  // measure 96
1000
0000
0001
0000
,  // measure 97
0100
0000
0010
0000
,  // measure 98
1000
0000
0001
0000
,  // measure 99
1000
0000
0100
0000
,  // measure 100
1000
0000
0001
0000
,  // measure 101
0001
0000
0010
0000
,  // measure 102
1000
0000
0001
0000
,  // measure 103
0000
0001
0000
0000
,  // measure 104
1000
0000
0000
0000
;
