#TITLE:Total Drama Island Theme Song;
#SUBTITLE:;
#ARTIST:Dancing Monkeys Project;
#TITLETRANSLIT:;
#SUBTITLETRANSLIT:;
#ARTISTTRANSLIT:;
#GENRE:;
#CREDIT:Gorilla v1.1.3 (Dancing Monkeys v1.06);
#BANNER:New Project - 2021-01-12T181159_318.png;
#BACKGROUND:deadd969d186074ecc5a0ae3a6041fcf6e105176e219ee857eeded6748a6bd44.png;
#LYRICSPATH:;
#CDTITLE:;
#MUSIC:onlymp3.to - Total Drama Island opening theme high quality-KSCuTEOQkho-192k-1696893933.mp3;
#OFFSET:-0.664146;
#SAMPLESTART:34.941231;
#SAMPLELENGTH:12.000000;
#SELECTABLE:YES;
#BPMS:0.000000=175.044006
;
#STOPS:
;
#BGCHANGES:;
#KEYSOUNDS:;
#ATTACKS:;

//---------------dance-single - Basic----------------
#NOTES:
     dance-single:
     Basic:
     Easy:
     5:
     0.215175,0.314693,0.000000,0.033104,0.000000,91.000000,91.000000,0.000000,2.000000,0.000000,0.000000,0.215175,0.314693,0.000000,0.033104,0.000000,91.000000,91.000000,0.000000,2.000000,0.000000,0.000000:
// measure 0
0001
0000
0000
1000
,  // measure 1
0000
0001
0000
0100
,  // measure 2
0000
1000
0000
1000
,  // measure 3
0000
0001
0000
0001
,  // measure 4
0000
0001
0000
0010
,  // measure 5
0000
0100
0000
1000
,  // measure 6
0000
0001
0000
1000
,  // measure 7
0000
0100
0000
0010
,  // measure 8
0000
1000
0000
0100
,  // measure 9
0000
0010
0000
0001
,  // measure 10
0000
0100
0000
1000
,  // measure 11
0000
0000
0010
0000
,  // measure 12
0001
0000
0010
0000
,  // measure 13
0100
0000
0010
0000
,  // measure 14
1000
0000
0010
0000
,  // measure 15
0001
0000
0100
0000
,  // measure 16
0010
0000
0100
0000
,  // measure 17
0010
0000
0100
0000
,  // measure 18
0001
0000
0010
0000
,  // measure 19
0001
0000
0010
0000
,  // measure 20
0001
0000
0100
0000
,  // measure 21
0001
0000
0010
0000
,  // measure 22
1000
0000
0010
0000
,  // measure 23
0001
0000
0100
0000
,  // measure 24
1000
0000
0010
0000
,  // measure 25
1000
0000
0100
0100
,  // measure 26
0000
0001
0000
0010
,  // measure 27
0000
0001
0000
1000
,  // measure 28
1000
1000
0001
0001
,  // measure 29
0001
1000
1000
1000
,  // measure 30
0001
0001
0001
1000
,  // measure 31
1000
1000
0001
0001
,  // measure 32
0001
1000
1000
1000
,  // measure 33
0000
1000
0000
0100
,  // measure 34
0100
0000
2000
0000
,  // measure 35
3000
0000
0010
0000
,  // measure 36
1000
0000
0010
0000
,  // measure 37
1000
0000
0100
0000
,  // measure 38
0001
0000
2000
0000
,  // measure 39
0000
0000
3000
0000
,  // measure 40
0000
0010
0000
0000
,  // measure 41
0100
0000
0000
1000
,  // measure 42
0000
0100
0000
0000
;
