#TITLE:onlymp3.to - Tokyo Revengers Opening 2 4K 60FPS Creditless -gOnsapg1MHE-192k-1708064084;
#SUBTITLE:;
#ARTIST:Dancing Monkeys Project;
#TITLETRANSLIT:;
#SUBTITLETRANSLIT:;
#ARTISTTRANSLIT:;
#GENRE:;
#CREDIT:Gorilla v1.1.3 (Dancing Monkeys v1.06);
#BANNER:tokyo-revengers-saison-3-1-scaled.png;
#BACKGROUND:pUBxh12HOE5ChPJROW8nbDMEupO.png;
#LYRICSPATH:;
#CDTITLE:;
#MUSIC:onlymp3.to - Tokyo Revengers Opening 2 4K 60FPS Creditless -gOnsapg1MHE-192k-1708064084.mp3;
#OFFSET:-0.716688;
#SAMPLESTART:42.685436;
#SAMPLELENGTH:12.000000;
#SELECTABLE:YES;
#BPMS:0.000000=142.963516
;
#STOPS:
;
#BGCHANGES:;
#KEYSOUNDS:;
#ATTACKS:;

//---------------dance-single - Basic----------------
#NOTES:
     dance-single:
     Basic:
     Easy:
     4:
     0.279927,0.252212,0.029101,0.009700,0.000000,202.000000,199.000000,3.000000,1.000000,0.000000,0.000000,0.279927,0.252212,0.029101,0.009700,0.000000,202.000000,199.000000,3.000000,1.000000,0.000000,0.000000:
// measure 0
0000
0001
0001
1000
,  // measure 1
0000
1000
0001
0010
,  // measure 2
0001
0001
0010
0001
,  // measure 3
1000
1000
1000
0001
,  // measure 4
0001
1000
0010
0100
,  // measure 5
1000
0100
0001
0100
,  // measure 6
1000
1000
1000
0001
,  // measure 7
0001
1100
1000
0100
,  // measure 8
0100
1000
0001
0010
,  // measure 9
1000
0100
0010
0001
,  // measure 10
1000
0010
0100
0001
,  // measure 11
0100
1000
0001
0010
,  // measure 12
0001
0010
1000
0100
,  // measure 13
0001
0100
1000
0100
,  // measure 14
1000
0100
0001
0100
,  // measure 15
0001
0010
1000
0100
,  // measure 16
1000
0010
1000
1000
,  // measure 17
0001
0100
1000
0100
,  // measure 18
0001
1000
0010
0100
,  // measure 19
0001
1000
0010
1000
,  // measure 20
0100
0010
0100
0001
,  // measure 21
1000
0010
1000
0010
,  // measure 22
0001
1001
1000
0100
,  // measure 23
1000
1000
1000
0001
,  // measure 24
0001
1000
0001
0100
,  // measure 25
1000
0001
0100
0001
,  // measure 26
0010
0100
1000
0001
,  // measure 27
0100
0010
1000
0010
,  // measure 28
0100
1000
0010
0001
,  // measure 29
1000
0010
1000
0010
,  // measure 30
1000
0001
0100
0010
,  // measure 31
1000
0010
0001
0100
,  // measure 32
0010
0100
1000
0010
,  // measure 33
0001
1000
0010
0001
,  // measure 34
1000
0010
0100
1000
,  // measure 35
0001
1000
0010
0100
,  // measure 36
1001
0010
0001
0100
,  // measure 37
0100
0001
1000
0010
,  // measure 38
1000
0010
0001
0100
,  // measure 39
0001
0100
0001
0010
,  // measure 40
1000
0010
0100
1000
,  // measure 41
0010
0100
0001
0100
,  // measure 42
1000
0010
0001
0100
,  // measure 43
0001
0010
0100
0001
,  // measure 44
0100
0010
1000
0100
,  // measure 45
0001
0010
1000
0100
,  // measure 46
0001
0010
0100
1000
,  // measure 47
0001
1000
0100
0010
,  // measure 48
0100
1000
0010
1000
,  // measure 49
0001
0010
0100
0001
,  // measure 50
2000
0000
0000
0000
,  // measure 51
0000
0000
0000
0000
,  // measure 52
3000
0000
0000
0000
;

//---------------dance-single - Standard----------------
#NOTES:
     dance-single:
     Standard:
     Medium:
     5:
     0.335358,0.353096,0.203709,0.000000,0.000000,242.000000,221.000000,21.000000,0.000000,0.000000,0.000000,0.335358,0.353096,0.203709,0.000000,0.000000,242.000000,221.000000,21.000000,0.000000,0.000000,0.000000:
0000
0000
0001
0000
0001
0010
0001
0000
,
0000
0001
0100
0000
0001
0000
0100
0000
,
1000
0001
0001
0000
0010
0000
0100
0000
,
0001
0000
0001
0000
0001
0000
0100
0000
,
1000
0000
0001
0001
0010
0000
0100
0000
,
0001
0000
1000
0000
0100
0000
0101
0000
,
0001
0000
0001
0000
0001
0000
0100
0000
,
1000
0000
1001
0000
0001
0000
0010
0000
,
0000
0001
0100
0000
0001
0000
0100
0000
,
0001
0000
0100
0000
0010
0100
0010
0000
,
0001
0000
0001
0000
0001
0000
0100
0000
,
0000
0001
0100
0000
0001
0000
0100
0000
,
0001
0000
0010
0000
0001
0000
1000
0000
,
1000
0000
1001
0000
0001
0000
0010
0000
,
0001
0000
1000
0000
0100
0000
0101
0000
,
1000
0000
1001
0000
0001
0000
0010
0000
,
0001
0000
0100
0000
0010
1000
1000
0000
,
1000
0000
1001
0000
0001
0000
0010
0000
,
1000
0000
0001
0001
0010
0000
0100
0000
,
0001
0000
0001
0000
0001
0000
0100
0000
,
0001
0000
0001
0000
0001
0000
0100
0000
,
0001
0000
0100
0000
1000
0000
0100
0000
,
1000
0000
1001
0000
0001
0000
0010
0000
,
0001
0000
0001
0000
0001
0000
0100
0000
,
0001
0000
1000
0000
0010
0000
0100
0000
,
0001
0000
0100
0000
0010
1000
1000
0000
,
0001
0000
0001
0000
0001
0000
0100
0000
,
1000
0000
1000
0000
1000
0000
0010
0000
,
0001
0000
0001
0000
0001
0000
0010
0000
,
0001
0000
0100
0000
1000
0000
0100
0000
,
0001
0000
0001
0000
0001
0000
0100
0000
,
0001
0000
0001
0000
0001
0000
0100
0000
,
0001
0000
0001
0000
0001
0000
0010
0000
,
0001
0000
1000
0000
0010
0000
0100
0000
,
0001
0000
0100
0000
0010
1000
1000
0000
,
1000
0001
0001
0000
0010
0000
0100
0000
,
1001
0000
1000
0000
0001
0000
1000
0000
,
0110
0000
1000
0000
1001
0000
0001
0000
,
1001
0000
1000
0000
0001
0000
1000
0000
,
1001
0000
0001
0000
1000
0000
0001
0000
,
0011
0000
0100
0000
0011
0000
1000
0000
,
0110
0000
1000
0000
1001
0000
0001
0000
,
1001
0000
1000
0000
0001
0000
1000
0000
,
0001
0000
0100
0000
0010
1000
1000
0000
,
1001
0000
1000
0000
0001
0000
1000
0000
,
1001
0000
0001
0000
1000
0000
0001
0000
,
0001
0000
0100
0000
0010
1000
1000
0000
,
0001
0000
0100
0000
0010
1000
1000
0000
,
0001
0000
1000
0000
0010
0000
0100
0000
,
0110
0000
1000
0000
1001
0000
0001
0000
,
0001
0000
0010
0000
0001
0000
1000
0010
,
0001
0000
0010
0000
0001
0000
1000
0000
,
1000
0000
0000
0000
0000
0000
0000
0000
,
0000
0000
0000
0000
0000
0000
0000
0000
,
0000
0000
0000
0000
0000
0000
0000
0000
,
0000
0000
0000
0000
0000
0000
0000
0000
,
0000
0000
0000
0000
0000
0000
0000
0000
,
0000
0000
0000
0000
0000
0000
0000
0000
,
0000
0000
0000
0000
0000
0000
0000
0000
,
0000
0000
0000
0000
0000
0000
0000
0000
,
;

//---------------dance-single - Heavy----------------
#NOTES:
     dance-single:
     Heavy:
     Hard:
     6:
     0.392175,0.354794,0.271613,0.000000,0.000000,283.000000,255.000000,28.000000,0.000000,0.000000,0.000000,0.392175,0.354794,0.271613,0.000000,0.000000,283.000000,255.000000,28.000000,0.000000,0.000000,0.000000:
0000
1000
1000
0000
1000
0100
1000
0000
,
0000
1000
0100
0000
0010
0001
0010
0000
,
0001
0010
0010
0000
0001
0000
0100
0001
,
0001
0010
0010
0000
0010
0000
0100
0000
,
1000
0000
0100
0100
0010
0000
1010
0000
,
0001
0000
0101
0000
1000
0000
0011
0000
,
0001
0010
0010
0000
0010
0000
0100
0000
,
0001
0000
0011
0000
0001
0100
0001
0000
,
0000
1000
0100
0000
0010
0001
0010
0000
,
0001
0100
0001
0000
0000
0000
0011
0000
,
0001
0010
0010
0000
0010
0000
0100
0000
,
0000
1000
0100
0000
0010
0001
0010
0000
,
0001
0010
0001
0000
0100
0000
0010
0000
,
0001
0000
0011
0000
0001
0100
0001
0000
,
0001
0000
0101
0000
1000
0000
0011
0000
,
0001
0000
0011
0000
0001
0100
0001
0000
,
1000
0010
1000
0000
0001
1000
1000
0000
,
0001
0000
0011
0000
0001
0100
0001
0000
,
1000
0000
0100
0100
0010
0000
1010
0000
,
0001
0010
0010
0000
0010
0000
0100
0000
,
1000
0100
0100
0000
0100
0000
0010
0000
,
1000
0000
1001
0000
0001
0000
1000
0000
,
0001
0000
0011
0000
0001
0100
0001
0000
,
0001
0010
0010
0000
0010
0000
0100
0000
,
1000
0000
0001
0000
0100
0010
0100
0000
,
1000
0010
1000
0000
0001
1000
1000
0000
,
0001
0010
0010
0000
0010
0000
0100
0000
,
1000
0100
0100
0000
0100
0000
0010
0000
,
1000
0010
0010
0000
0010
0000
0100
0000
,
1000
0000
1001
0000
0001
0000
1000
0000
,
0001
0010
0010
0000
0010
0000
0100
0000
,
0001
0100
0100
0000
0100
0000
0010
0000
,
0001
0100
0100
0000
0100
0000
0010
0000
,
1000
0000
0001
0000
0100
0010
0100
0000
,
1000
0010
1000
0000
0001
1000
1000
0000
,
0001
0010
0010
0000
0001
0000
0100
0000
,
0101
0000
0100
0000
0010
0000
1000
0000
,
0011
0000
0001
0000
1001
0000
0001
0000
,
0101
0000
0100
0000
0010
0000
1000
0000
,
0101
0000
0100
0000
0010
0000
1000
0000
,
1010
0000
0100
0000
1100
0000
0001
0000
,
0011
0000
0001
0000
1001
0000
0001
0000
,
0101
0000
0100
0000
0010
0000
1000
0000
,
1000
0010
1000
0000
0001
1000
1000
0000
,
0101
0000
0100
0000
0010
0000
1000
0000
,
0011
0000
0010
0000
0100
0000
1000
0000
,
1000
0010
1000
0000
0001
1000
1000
0000
,
1000
0100
1000
0000
0001
1000
1000
0000
,
1000
0000
0001
0000
0100
0010
0100
0000
,
0011
0000
0001
0000
1001
0000
0001
0000
,
1000
0000
0100
0000
1000
0001
1000
0010
,
0001
0010
0001
0000
0100
0000
0010
0000
,
1000
0000
0100
0000
0000
0000
0000
0000
,
0000
0000
0000
0000
0000
0000
0000
0000
,
0000
0000
0000
0000
0000
0000
0000
0000
,
0000
0000
0000
0000
0000
0000
0000
0000
,
0000
0000
0000
0000
0000
0000
0000
0000
,
0000
0000
0000
0000
0000
0000
0000
0000
,
0000
0000
0000
0000
0000
0000
0000
0000
,
0000
0000
0000
0000
0000
0000
0000
0000
,
;
