#TITLE:JJK;
#SUBTITLE:- Todo Boogie;
#ARTIST:Unknown artist;
#TITLETRANSLIT:;
#SUBTITLETRANSLIT:;
#ARTISTTRANSLIT:;
#GENRE:;
#CREDIT:;
#BANNER:maxresdefault.png;
#BACKGROUND:artworks-pRjmENgQ2LpjVdjc-fKPRrw-t500x500.png;
#LYRICSPATH:;
#CDTITLE:;
#MUSIC:onlymp3.to - Jujutsu Kaisen Todo Boogie Woogie Theme Best HQ Remake EP20-EnIpldMUw9g-192k-1707224250.mp3;
#OFFSET:0.000000;
#SAMPLESTART:100.000000;
#SAMPLELENGTH:12.000000;
#SELECTABLE:YES;
#BPMS:0.000000=170.000000
;
#STOPS:
;
#BGCHANGES:;
#KEYSOUNDS:;
#ATTACKS:;

//---------------dance-single - ----------------
#NOTES:
     dance-single:
     :
     Easy:
     1:
     0.172806,0.183921,0.021993,0.010997,0.000000,220.000000,216.000000,4.000000,2.000000,0.000000,0.000000,0.172806,0.183921,0.021993,0.010997,0.000000,220.000000,216.000000,4.000000,2.000000,0.000000,0.000000:
0000
1000
0010
1000
,
0100
1000
0010
1000
,
0100
1000
0010
1000
,
0100
0010
0100
0001
,
0010
0001
1000
0100
,
1000
0001
0010
0001
,
1000
0100
1000
0100
,
0010
1000
0010
0100
,
0001
0010
0100
1000
,
0100
0010
0001
0010
,
0100
1000
0100
0001
,
0010
0100
1000
0010
,
0001
0100
1000
0100
,
0001
0010
0100
0001
,
1000
0001
0010
0100
,
1000
0001
0010
1001
,
1001
1001
0010
1000
,
0100
1000
0010
0100
,
0001
0010
0100
1000
,
0010
0100
0001
0010
,
0100
0001
0010
0100
,
1000
0100
0010
0001
,
1000
0100
0001
0010
,
1000
0100
0001
0010
,
1000
0100
0001
0010
,
0100
0001
1000
0100
,
0001
0100
0001
0010
,
0100
1000
0100
0001
,
0010
0100
0001
0010
,
1000
0010
0100
0001
,
0010
1000
0010
0001
,
0100
0010
1000
0010
,
0001
0010
0100
0010
,
2002
0000
0000
0000
,
0000
0000
0000
3003
,
0010
1000
0001
0010
,
0100
1000
0100
0010
,
0100
0001
0010
0100
,
1000
0001
0010
0100
,
1000
0010
0001
0010
,
0100
0001
0010
1000
,
0100
0001
0010
0100
,
1000
0001
0010
0100
,
1000
0001
0010
0100
,
1000
0001
0010
0100
,
0001
0010
0001
1000
,
0100
1000
0010
0100
,
0001
0100
0001
1000
,
0100
1000
0010
0100
,
0001
0010
1000
0100
,
0001
0010
1000
0100
,
0010
1000
0001
0010
,
0100
0010
1000
0001
,
0010
0100
0010
0001
,
1000
0100
0010
1000
,
0001
0010
1000
0010
;

//---------------dance-single - ----------------
#NOTES:
     dance-single:
     :
     Beginner:
     1:
     0.084832,0.076634,0.000000,0.005498,0.000000,108.000000,108.000000,0.000000,1.000000,0.000000,0.000000,0.084832,0.076634,0.000000,0.005498,0.000000,108.000000,108.000000,0.000000,1.000000,0.000000,0.000000:
// measure 0
0000
0000
0010
0000
,  // measure 1
0100
0000
0010
0000
,  // measure 2
0100
0000
0010
0000
,  // measure 3
0100
0000
0100
0000
,  // measure 4
0010
0000
1000
0000
,  // measure 5
1000
0000
0010
0000
,  // measure 6
1000
0000
1000
0000
,  // measure 7
0010
0000
0010
0000
,  // measure 8
0001
0000
0100
0000
,  // measure 9
0100
0000
0001
0000
,  // measure 10
0100
0000
0100
0000
,  // measure 11
0010
0000
1000
0000
,  // measure 12
0001
0000
1000
0000
,  // measure 13
0001
0000
0100
0000
,  // measure 14
1000
0000
0010
0000
,  // measure 15
1000
0000
0010
0000
,  // measure 16
1000
0000
0010
0000
,  // measure 17
0100
0000
0010
0000
,  // measure 18
0001
0000
0100
0000
,  // measure 19
0010
0000
0001
0000
,  // measure 20
0100
0000
0010
0000
,  // measure 21
1000
0000
0010
0000
,  // measure 22
1000
0000
0001
0000
,  // measure 23
1000
0000
0001
0000
,  // measure 24
1000
0000
0001
0000
,  // measure 25
0100
0000
1000
0000
,  // measure 26
0010
0000
0001
0000
,  // measure 27
0100
0000
0001
0000
,  // measure 28
0010
0000
0001
0000
,  // measure 29
1000
0000
0100
0000
,  // measure 30
0001
0000
0010
0000
,  // measure 31
0100
0000
1000
0000
,  // measure 32
0001
0000
0100
0000
,  // measure 33
2000
0000
0000
0000
,  // measure 34
0000
0000
0000
3000
,  // measure 35
0000
1000
0000
0010
,  // measure 36
0000
1000
0000
0010
,  // measure 37
0000
0001
0000
0100
,  // measure 38
0000
0001
0000
0100
,  // measure 39
0000
0001
0000
0010
,  // measure 40
0000
0001
0000
1000
,  // measure 41
0000
0001
0000
0100
,  // measure 42
0000
0001
0000
0100
,  // measure 43
0000
0001
0000
0100
,  // measure 44
0000
0001
0000
0100
,  // measure 45
0000
0010
0000
1000
,  // measure 46
0000
1000
0000
0010
,  // measure 47
0000
0100
0000
1000
,  // measure 48
0000
1000
0000
0100
,  // measure 49
0000
0010
0000
0100
,  // measure 50
0000
0010
0000
0100
,  // measure 51
0000
1000
0000
0001
,  // measure 52
0000
0010
0000
0001
,  // measure 53
0000
0100
0000
0001
,  // measure 54
0000
0100
0000
1000
,  // measure 55
0000
0010
0000
0100
;
