#TITLE:Big time rush\: WorldWide;
#SUBTITLE:;
#ARTIST:Dancing Monkeys Project;
#TITLETRANSLIT:;
#SUBTITLETRANSLIT:;
#ARTISTTRANSLIT:;
#GENRE:;
#CREDIT:Gorilla v1.1.3 (Dancing Monkeys v1.06);
#BANNER:;
#BACKGROUND:;
#LYRICSPATH:;
#CDTITLE:;
#MUSIC:Big time rush-Til i forget about you(LYRICSPICTURES).mp3;
#OFFSET:-0.851791;
#SAMPLESTART:38.352924;
#SAMPLELENGTH:12.000000;
#SELECTABLE:YES;
#BPMS:0.000000=159.994995
;
#STOPS:
;
#BGCHANGES:;
#KEYSOUNDS:;
#ATTACKS:;

//---------------dance-single - Basic----------------
#NOTES:
     dance-single:
     Basic:
     Easy:
     3:
     0.220879,0.291724,0.020800,0.006933,0.000000,223.000000,220.000000,3.000000,1.000000,0.000000,0.000000,0.220879,0.291724,0.020800,0.006933,0.000000,223.000000,220.000000,3.000000,1.000000,0.000000,0.000000:
// measure 0
0000
0001
0000
0000
,  // measure 1
1000
0100
0000
0010
,  // measure 2
0000
1000
0000
0000
,  // measure 3
0001
0010
0000
0100
,  // measure 4
0000
1000
0000
0000
,  // measure 5
0001
0010
0000
0100
,  // measure 6
0000
1000
0000
0000
,  // measure 7
0001
0010
0000
0100
,  // measure 8
0000
1000
0000
0000
,  // measure 9
1000
0100
0000
0010
,  // measure 10
0000
1000
0000
0001
,  // measure 11
0001
0010
0000
0100
,  // measure 12
0000
1000
0000
0000
,  // measure 13
1000
0100
0000
0010
,  // measure 14
0000
1000
0000
0000
,  // measure 15
1000
0010
0000
1000
,  // measure 16
0000
1000
0000
0001
,  // measure 17
0001
0100
0000
0010
,  // measure 18
0000
1000
0000
0000
,  // measure 19
1000
0001
0000
0010
,  // measure 20
0000
1000
0000
0001
,  // measure 21
0001
0100
0000
0010
,  // measure 22
0000
1000
0000
0001
,  // measure 23
1000
0010
0000
1000
,  // measure 24
0000
1000
0000
0001
,  // measure 25
0001
0100
0000
0010
,  // measure 26
0000
1000
0000
0001
,  // measure 27
1000
0010
0000
1000
,  // measure 28
0000
1000
0000
0001
,  // measure 29
0001
0000
1000
0010
,  // measure 30
1000
0000
0000
0100
,  // measure 31
1000
0010
0000
1000
,  // measure 32
0001
0100
0000
0000
,  // measure 33
1000
0010
0000
1000
,  // measure 34
0001
0000
1000
0000
,  // measure 35
0001
0100
0000
0010
,  // measure 36
0000
1000
0000
0001
,  // measure 37
1000
0010
0000
1000
,  // measure 38
1000
0000
0000
0100
,  // measure 39
0001
0010
0100
1001
,  // measure 40
0001
0000
0010
0100
,  // measure 41
0001
0000
1000
0100
,  // measure 42
0001
0100
0000
0000
,  // measure 43
1000
0010
0000
1000
,  // measure 44
1000
0000
0000
0100
,  // measure 45
1000
0000
0001
0020
,  // measure 46
0000
0000
0000
0000
,  // measure 47
0000
0030
0000
0010
,  // measure 48
0000
1000
0000
0000
,  // measure 49
0001
0010
0000
0100
,  // measure 50
0000
1000
0000
0001
,  // measure 51
0001
0010
0000
0100
,  // measure 52
0000
1000
0000
0000
,  // measure 53
0001
0010
0000
0100
,  // measure 54
0000
1000
0000
0000
,  // measure 55
1000
0001
0000
0010
,  // measure 56
0000
1000
0000
0000
,  // measure 57
1000
0100
0000
0010
,  // measure 58
0000
1000
0000
0001
,  // measure 59
0001
0010
0000
0100
,  // measure 60
0000
1000
0000
0000
,  // measure 61
0001
0010
0000
0100
,  // measure 62
0000
1000
0000
0000
,  // measure 63
1000
0010
0000
1000
,  // measure 64
0000
1000
0000
0001
,  // measure 65
0001
0100
0000
0010
,  // measure 66
0000
1000
0000
0000
,  // measure 67
0001
0010
0000
0100
,  // measure 68
0000
1000
0000
0001
,  // measure 69
0001
0100
0000
0010
,  // measure 70
0001
0100
0000
0000
,  // measure 71
1000
0010
0000
0101
,  // measure 72
0000
1000
0000
0001
,  // measure 73
1000
0010
0000
1000
,  // measure 74
0000
1000
0000
0001
,  // measure 75
1000
0010
0000
1000
,  // measure 76
1000
0000
0000
0100
,  // measure 77
1000
0000
0001
0100
,  // measure 78
0001
0100
0000
0000
,  // measure 79
1000
0010
0000
1000
,  // measure 80
0000
1000
0000
0001
,  // measure 81
1000
0010
0000
1000
,  // measure 82
0001
0000
1000
0000
,  // measure 83
0001
0100
0000
0010
,  // measure 84
0000
1000
0000
0001
,  // measure 85
1000
0010
0000
1000
,  // measure 86
1000
0000
0000
0100
,  // measure 87
0001
0010
0100
1001
,  // measure 88
0001
0000
0010
0100
,  // measure 89
1000
0000
0001
0100
,  // measure 90
0001
0100
0000
0000
,  // measure 91
1000
0010
0000
1000
,  // measure 92
1000
0000
0000
0100
,  // measure 93
0001
0010
0001
0000
;

//---------------dance-single - Standard----------------
#NOTES:
     dance-single:
     Standard:
     Medium:
     5:
     0.314975,0.357028,0.124802,0.000000,0.000000,318.000000,300.000000,18.000000,0.000000,0.000000,0.000000,0.314975,0.357028,0.124802,0.000000,0.000000,318.000000,300.000000,18.000000,0.000000,0.000000,0.000000:
0000
0001
1000
0000
0000
0000
0000
0000
,
1000
0000
0001
0000
0000
0000
0100
0000
,
0000
1000
0100
0000
0000
0000
0000
0000
,
0001
0000
0010
0000
0000
0000
0001
0000
,
0000
1000
0100
0000
0000
0000
0000
0000
,
0001
0000
0010
0000
0000
0000
0001
0000
,
0000
1000
0100
0000
0000
0000
0000
0000
,
0001
0000
0010
0000
0000
0000
0001
0000
,
0000
1000
0100
0000
0000
0000
0000
0000
,
1000
0000
0001
0000
0000
0000
0100
0000
,
0000
0001
1000
0000
0000
0000
0010
0000
,
0001
0000
0010
0000
0000
0000
0001
0000
,
0000
1000
0100
0000
0000
0000
0000
0000
,
1000
0000
0001
0000
0000
0000
0100
0000
,
0000
1000
0100
0000
0000
0000
0000
0000
,
1000
0000
0010
0000
0100
0000
1001
0000
,
0000
0001
1000
0000
0000
0000
0010
0000
,
1000
0000
0100
0000
0100
0000
1000
0000
,
0000
1000
0100
0000
0000
0000
0000
0000
,
0001
0000
0100
0000
0000
0000
0010
0000
,
0000
0001
1000
0000
0000
0000
0010
0000
,
1000
0000
0100
0000
0100
0000
1000
0000
,
0000
0001
1000
0000
0000
0000
0010
0000
,
1000
0000
0010
0000
0100
0000
1001
0000
,
0000
0001
1000
0000
0000
0000
0010
0000
,
1000
0000
0100
0000
0100
0000
1000
0000
,
0000
0001
1000
0000
0000
0000
0010
0000
,
1000
0000
0010
0000
0100
0000
1001
0000
,
0000
0001
1000
0000
0000
0000
0010
0000
,
1000
0000
0100
0000
1000
0000
0010
0000
,
1000
0010
1000
0000
0000
0000
0100
0000
,
1000
0000
0010
0000
0100
0000
1001
0000
,
0001
1000
0010
0000
0000
0000
0000
0000
,
1000
0000
0010
0000
0100
0000
1001
0000
,
1000
0000
0000
0000
0100
0000
0010
0000
,
1000
0000
0100
0000
0100
0000
1000
0000
,
0000
0001
1000
0000
0000
0000
0010
0000
,
1000
0000
0010
0000
0100
0000
1001
0000
,
1000
0010
1000
0000
0000
0000
0100
0000
,
0001
0000
0100
0000
0010
0000
1010
0000
,
0001
0000
0100
0000
0010
0000
1000
0000
,
0001
0000
0100
0000
0001
0000
0010
0000
,
0001
1000
0010
0000
0000
0000
0000
0000
,
1000
0000
0010
0000
0100
0000
1001
0000
,
1000
0010
1000
0000
0000
0000
0100
0000
,
1000
0000
1000
0000
0010
0000
0200
0000
,
0000
0000
1000
0000
0000
0000
0100
0000
,
0000
0000
0300
0000
0000
0000
1000
0000
,
0000
1000
0100
0000
0000
0000
0000
0000
,
0001
0000
0010
0000
0000
0000
0001
0000
,
0000
0001
1000
0000
0000
0000
0010
0000
,
0001
0000
0010
0000
0000
0000
0001
0000
,
0000
1000
0100
0000
0000
0000
0000
0000
,
0001
0000
0010
0000
0000
0000
0001
0000
,
0000
1000
0100
0000
0000
0000
0000
0000
,
0001
0000
0100
0000
0000
0000
0010
0000
,
0000
1000
0100
0000
0000
0000
0000
0000
,
1000
0000
0001
0000
0000
0000
0100
0000
,
0000
0001
1000
0000
0000
0000
0010
0000
,
0001
0000
0010
0000
0000
0000
0001
0000
,
0000
1000
0100
0000
0000
0000
0000
0000
,
0001
0000
0010
0000
0000
0000
0001
0000
,
0000
1000
0100
0000
0000
0000
0000
0000
,
1000
0000
0010
0000
0100
0000
1001
0000
,
0000
0001
1000
0000
0000
0000
0010
0000
,
1000
0000
0100
0000
0100
0000
1000
0000
,
0000
1000
0100
0000
0000
0000
0000
0000
,
0001
0000
0010
0000
0000
0000
0001
0000
,
0000
0001
1000
0000
0000
0000
0010
0000
,
1000
0000
0100
0000
0100
0000
1000
0000
,
0001
1000
0010
0000
0000
0000
0000
0000
,
0001
0000
0100
0000
0000
0000
1100
0000
,
0000
0001
1000
0000
0000
0000
0010
0000
,
1000
0000
0010
0000
0100
0000
1001
0000
,
0000
0001
1000
0000
0000
0000
0010
0000
,
1000
0000
0010
0000
0100
0000
1001
0000
,
1000
0010
1000
0000
0000
0000
0100
0000
,
1000
0000
1000
0000
0010
0000
1000
0000
,
0001
1000
0010
0000
0000
0000
0000
0000
,
1000
0000
0010
0000
0100
0000
1001
0000
,
0000
0001
1000
0000
0000
0000
0010
0000
,
1000
0000
0010
0000
0100
0000
1001
0000
,
1000
0000
0000
0000
0100
0000
0010
0000
,
1000
0000
0100
0000
0100
0000
1000
0000
,
0000
0001
1000
0000
0000
0000
0010
0000
,
1000
0000
0010
0000
0100
0000
1001
0000
,
1000
0010
1000
0000
0000
0000
0100
0000
,
0001
0000
0100
0000
0010
0000
1010
0000
,
0001
0000
0100
0000
0010
0000
1000
0000
,
1000
0000
1000
0000
0010
0000
1000
0000
,
0001
1000
0010
0000
0000
0000
0000
0000
,
1000
0000
0010
0000
0100
0000
1001
0000
,
1000
0010
1000
0000
0000
0000
0100
0000
,
1001
0000
1000
0000
0001
0100
0002
0000
,
;

//---------------dance-single - Heavy----------------
#NOTES:
     dance-single:
     Heavy:
     Hard:
     6:
     0.363509,0.389485,0.277337,0.000000,0.000000,367.000000,327.000000,40.000000,0.000000,0.000000,0.000000,0.363509,0.389485,0.277337,0.000000,0.000000,367.000000,327.000000,40.000000,0.000000,0.000000,0.000000:
0000
1000
0100
0000
0000
0000
0000
0000
,
0101
0000
0001
0000
0000
0000
0010
0000
,
0000
1000
0010
0000
0000
0000
0000
0000
,
1100
0000
0001
0000
0000
1000
0001
0000
,
0000
1000
0010
0000
0000
0000
0000
0000
,
1100
0000
0001
0000
0000
1000
0001
0000
,
0000
1000
0010
0000
0000
0000
0000
0000
,
1100
0000
0001
0000
0000
1000
0001
0000
,
0000
1000
0010
0000
0000
0000
0000
0000
,
0101
0000
0001
0000
0000
0000
0010
0000
,
0000
1000
0001
0000
0000
0000
0010
0000
,
1100
0000
0001
0000
0000
1000
0001
0000
,
0000
1000
0010
0000
0000
0000
0000
0000
,
0101
0000
0001
0000
0000
0000
0010
0000
,
0000
1000
0010
0000
0000
0000
0000
0000
,
0001
0000
0010
0000
0100
0000
1010
0000
,
0000
1000
0001
0000
0000
0000
0010
0000
,
0101
0000
1000
0000
1000
0001
0100
0000
,
0000
1000
0010
0000
0000
0000
0000
0000
,
1000
0000
0001
0000
0000
0000
0010
0000
,
0000
1000
0001
0000
0000
0000
0010
0000
,
0101
0000
1000
0000
1000
0001
0100
0000
,
0000
1000
0001
0000
0000
0000
0010
0000
,
0001
0000
0010
0000
0100
0000
1010
0000
,
0000
1000
0001
0000
0000
0000
0010
0000
,
0101
0000
1000
0000
1000
0001
0100
0000
,
0000
1000
0001
0000
0000
0000
0010
0000
,
0001
0000
0010
0000
0100
0000
1010
0000
,
0000
1000
0001
0000
0000
0000
0010
0000
,
1000
0000
0000
0000
0100
0000
0101
0000
,
1000
0010
0100
0000
0000
0000
0010
0000
,
0001
0000
0010
0000
0100
0000
1010
0000
,
0001
0100
0010
0000
1000
0000
0000
0000
,
0001
0000
0010
0000
0100
0000
1010
0000
,
1000
0001
0000
0000
0100
0000
1000
0000
,
0101
0000
1000
0000
1000
0001
0100
0000
,
0000
1000
0001
0000
0000
0000
0010
0000
,
0001
0000
0010
0000
0100
0000
1010
0000
,
1000
0010
0100
0000
0000
0000
0010
0000
,
0001
0000
0010
0000
0100
0000
0101
0000
,
1000
0001
0010
0000
0001
0000
0010
0000
,
1000
0000
0001
0000
0010
0000
0100
1000
,
0001
0100
0010
0000
1000
0000
0000
0000
,
0001
0000
0010
0000
0100
0000
1010
0000
,
1000
0010
0100
0000
0000
0000
0010
0000
,
1000
0000
1000
0000
0001
0000
2000
0000
,
0000
0000
1000
0000
0000
0000
0000
0000
,
0000
0000
3100
0000
0000
0000
0010
0000
,
0000
1000
0010
0000
0000
0000
0000
0000
,
1100
0000
0001
0000
0000
1000
0001
0000
,
0000
1000
0001
0000
0000
0000
0010
0000
,
1100
0000
0001
0000
0000
1000
0001
0000
,
0000
1000
0010
0000
0000
0000
0000
0000
,
1100
0000
0001
0000
0000
1000
0001
0000
,
0000
1000
0010
0000
0000
0000
0000
0000
,
1000
0000
0001
0000
0000
0000
0010
0000
,
0000
1000
0010
0000
0000
0000
0000
0000
,
0101
0000
0001
0000
0000
0000
0010
0000
,
0000
1000
0001
0000
0000
0000
0010
0000
,
1100
0000
0001
0000
0000
1000
0001
0000
,
0000
1000
0010
0000
0000
0000
0000
0000
,
1100
0000
0001
0000
0000
1000
0001
0000
,
0000
1000
0010
0000
0000
0000
0000
0000
,
0001
0000
0010
0000
0100
0000
1010
0000
,
0000
1000
0001
0000
0000
0000
0010
0000
,
0101
0000
1000
0000
1000
0001
0100
0000
,
0000
1000
0010
0000
0000
0000
0000
0000
,
1100
0000
0001
0000
0000
1000
0001
0000
,
0000
1000
0001
0000
0000
0000
0010
0000
,
0101
0000
1000
0000
1000
0001
0100
0000
,
0001
0100
0010
0000
1000
0000
0000
0000
,
0001
0000
0010
0000
0010
0000
0110
0000
,
0000
1000
0001
0000
0000
0000
0010
0000
,
0001
0000
0010
0000
0100
0000
1010
0000
,
0000
1000
0001
0000
0000
0000
0010
0000
,
0001
0000
0010
0000
0100
0000
1010
0000
,
1000
0010
0100
0000
0000
0000
0010
0000
,
1000
0000
1000
0000
0001
0000
1000
0000
,
0001
0100
0010
0000
1000
0000
0000
0000
,
0001
0000
0010
0000
0100
0000
1010
0000
,
0000
1000
0001
0000
0000
0000
0010
0000
,
0001
0000
0010
0000
0100
0000
1010
0000
,
1000
0001
0000
0000
0100
0000
1000
0000
,
0101
0000
1000
0000
1000
0001
0100
0000
,
0000
1000
0001
0000
0000
0000
0010
0000
,
0001
0000
0010
0000
0100
0000
1010
0000
,
1000
0010
0100
0000
0000
0000
0010
0000
,
0001
0000
0010
0000
0100
0000
0101
0000
,
1000
0001
0010
0000
0001
0000
0010
0000
,
1000
0000
1000
0000
0001
0000
1000
0000
,
0001
0100
0010
0000
1000
0000
0000
0000
,
0001
0000
0010
0000
0100
0000
1010
0000
,
1000
0010
0100
0000
0000
0000
0010
0000
,
0110
0000
1000
0000
0010
0100
2000
0000
,
;
