#TITLE:Class Of 3000-Throwdown;
#SUBTITLE:;
#ARTIST:Dancing Monkeys Project;
#TITLETRANSLIT:;
#SUBTITLETRANSLIT:;
#ARTISTTRANSLIT:;
#GENRE:;
#CREDIT:Gorilla v1.1.3 (Dancing Monkeys v1.06);
#BANNER:s4s38ct4ovm21.jpg;
#BACKGROUND:maxresdefault (1).jpg;
#LYRICSPATH:;
#CDTITLE:;
#MUSIC:Class Of 3000-Throwdown.mp3;
#OFFSET:-0.512375;
#SAMPLESTART:45.626957;
#SAMPLELENGTH:12.000000;
#SELECTABLE:YES;
#BPMS:0.000000=132.994995
;
#STOPS:259.000000=1.805000
;
#BGCHANGES:;
#KEYSOUNDS:;
#ATTACKS:;

//---------------dance-single - Basic----------------
#NOTES:
     dance-single:
     Basic:
     Easy:
     4:
     0.245570,0.224504,0.009630,0.004815,0.000000,357.000000,355.000000,2.000000,1.000000,0.000000,0.000000,0.245570,0.224504,0.009630,0.004815,0.000000,357.000000,355.000000,2.000000,1.000000,0.000000,0.000000:
// measure 0
0000
0000
0000
2000
,  // measure 1
0000
0000
0000
0000
,  // measure 2
0000
3001
1000
0001
,  // measure 3
1000
0001
0100
0100
,  // measure 4
1000
0010
1000
0100
,  // measure 5
1000
0001
0100
0100
,  // measure 6
1000
0010
1000
0100
,  // measure 7
1000
0001
0100
0100
,  // measure 8
1000
0010
1000
0100
,  // measure 9
1000
0001
0100
0100
,  // measure 10
1000
0010
1000
0100
,  // measure 11
0001
0010
1000
1000
,  // measure 12
1000
0010
1000
0100
,  // measure 13
1000
0001
0100
0100
,  // measure 14
1000
0010
1000
0100
,  // measure 15
1000
0001
0100
0100
,  // measure 16
0001
1000
0100
0001
,  // measure 17
1000
0001
0100
0100
,  // measure 18
0001
1000
0010
0001
,  // measure 19
1000
0001
0100
0100
,  // measure 20
0001
1000
0100
1000
,  // measure 21
1000
0001
0100
0100
,  // measure 22
0001
1000
0100
0001
,  // measure 23
1000
0001
0100
0100
,  // measure 24
0001
1000
0100
0001
,  // measure 25
1000
0001
0100
0100
,  // measure 26
0001
1000
0100
0010
,  // measure 27
0001
0010
0100
0100
,  // measure 28
0001
1000
0010
1000
,  // measure 29
1000
0001
0100
0100
,  // measure 30
0001
1000
0100
0001
,  // measure 31
1000
0001
0100
0100
,  // measure 32
0001
1000
0100
0001
,  // measure 33
1000
0001
0100
0100
,  // measure 34
0000
0001
1000
0001
,  // measure 35
1000
0001
0100
0100
,  // measure 36
1000
0010
1000
0100
,  // measure 37
0000
1000
0010
1000
,  // measure 38
0000
0000
0001
0010
,  // measure 39
1000
0001
0100
0100
,  // measure 40
0001
1000
0010
0001
,  // measure 41
1000
0001
0100
0100
,  // measure 42
1000
0010
1000
0100
,  // measure 43
1000
0001
0100
0100
,  // measure 44
0001
1000
0010
0001
,  // measure 45
1000
0001
0100
0100
,  // measure 46
1000
0010
1000
0100
,  // measure 47
1000
0001
0100
0100
,  // measure 48
0001
1000
0100
1000
,  // measure 49
0001
0010
0100
0000
,  // measure 50
1000
0001
0100
0001
,  // measure 51
1000
0001
0100
0100
,  // measure 52
0001
1000
0010
0001
,  // measure 53
1000
0001
0100
0100
,  // measure 54
0001
1000
0010
0001
,  // measure 55
1000
0001
0100
0100
,  // measure 56
0001
1000
0100
0001
,  // measure 57
1000
0001
0100
0100
,  // measure 58
0001
1000
0010
0001
,  // measure 59
1000
0001
0100
0100
,  // measure 60
0001
1000
0010
0001
,  // measure 61
1000
0001
0100
0100
,  // measure 62
0001
1000
0100
0001
,  // measure 63
1000
0001
0100
0100
,  // measure 64
1000
0010
0000
1000
,  // measure 65
0000
0001
1000
0001
,  // measure 66
1000
0100
0010
0001
,  // measure 67
1000
0010
1000
0001
,  // measure 68
1000
0010
0100
0010
,  // measure 69
1000
0010
0001
0100
,  // measure 70
1000
0100
0010
0001
,  // measure 71
0001
0010
0100
0010
,  // measure 72
1000
0100
0010
0010
,  // measure 73
0100
0001
0100
0010
,  // measure 74
0001
0100
1010
0000
,  // measure 75
0010
0001
0100
0010
,  // measure 76
1000
0010
0100
1000
,  // measure 77
0001
1000
0100
0010
,  // measure 78
0001
1000
1000
0010
,  // measure 79
1000
0100
0010
1000
,  // measure 80
0001
0100
1000
0001
,  // measure 81
1000
0100
0001
1000
,  // measure 82
1000
0010
0100
0010
,  // measure 83
0001
0010
0100
0010
,  // measure 84
1000
1000
0001
0100
,  // measure 85
1000
0100
1000
0001
,  // measure 86
1000
0100
0010
0001
,  // measure 87
1000
0000
0001
0000
,  // measure 88
0000
0001
1000
0100
,  // measure 89
1000
0001
0001
1000
,  // measure 90
1000
0100
0010
0001
,  // measure 91
1000
0010
1000
0100
,  // measure 92
1000
0100
0010
0001
,  // measure 93
1001
0010
0000
0000
;

//---------------dance-single - Standard----------------
#NOTES:
     dance-single:
     Standard:
     Medium:
     6:
     0.388647,0.359688,0.072227,0.004815,0.000000,565.000000,550.000000,15.000000,1.000000,0.000000,0.000000,0.388647,0.359688,0.072227,0.004815,0.000000,565.000000,550.000000,15.000000,1.000000,0.000000,0.000000:
0000
0000
0000
0000
0000
0000
0002
0000
,
0000
0000
0000
0000
0000
0000
0000
0000
,
0000
0000
1003
0000
0010
1000
0000
0100
,
0001
0100
0010
0000
0100
0001
0001
0000
,
1000
0000
0001
0000
1000
0100
1000
0001
,
0001
0100
0010
0000
0100
0001
0001
0000
,
1000
0000
0001
0000
1000
0100
1000
0001
,
0001
0100
0010
0000
0100
0001
0001
0000
,
1000
0000
0001
0000
1000
0100
1000
0001
,
0001
0100
0010
0000
0100
0001
0001
0000
,
1000
0000
0001
0000
1000
0100
1000
0001
,
1000
0000
1100
0000
0001
0100
0100
0010
,
1000
0000
0001
0000
1000
0100
1000
0001
,
0001
0100
0010
0000
0100
0001
0001
0000
,
1000
0000
0001
0000
1000
0100
1000
0001
,
0001
0100
0010
0000
0100
0001
0001
0000
,
0001
0000
0100
0001
1000
0010
0100
0010
,
0001
0100
0010
0000
0100
0001
0001
0000
,
0001
0000
0100
0001
1000
0010
0100
0010
,
0001
0100
0010
0000
0100
0001
0001
0000
,
0001
0000
0100
0001
1000
0010
0100
0010
,
0001
0100
0010
0000
0100
0001
0001
0000
,
0001
0000
0100
0001
1000
0010
0100
0010
,
0001
0100
0010
0000
0100
0001
0001
0000
,
0001
0000
0100
0001
1000
0010
0100
0010
,
0001
0100
0010
0000
0100
0001
0001
0000
,
0011
0000
0010
0001
0010
0001
0100
0010
,
0001
0100
0010
0000
0100
0001
0001
0000
,
0001
0000
0100
0001
1000
0010
0100
0010
,
0001
0100
0010
0000
0100
0001
0001
0000
,
0001
0000
0100
0001
1000
0010
0100
0010
,
0001
0100
0010
0000
0100
0001
0001
0000
,
0001
0000
0100
0001
1000
0010
0100
0010
,
0001
0100
0010
0000
0100
0001
0001
0000
,
0000
0000
1000
0000
0010
1000
0000
0100
,
0001
0100
0010
0000
0100
0001
0001
0000
,
1000
0000
0001
0000
1000
0100
1000
0001
,
0000
0000
0001
0000
0010
0001
0100
0000
,
0000
0000
0000
0000
0001
0100
0000
0010
,
0001
0100
0010
0000
0100
0001
0001
0000
,
0001
0000
0100
0001
1000
0010
0100
0010
,
0001
0100
0010
0000
0100
0001
0001
0000
,
1000
0000
0001
0000
1000
0100
1000
0001
,
0001
0100
0010
0000
0100
0001
0001
0000
,
0001
0000
0100
0001
1000
0010
0100
0010
,
0001
0100
0010
0000
0100
0001
0001
0000
,
1000
0000
0001
0000
1000
0100
1000
0001
,
0001
0100
0010
0000
0100
0001
0001
0000
,
0001
0000
0100
0001
1000
0010
0100
0010
,
0001
0000
0010
0000
0010
0100
0000
0000
,
1000
0000
1010
0000
0001
1000
0010
1000
,
0001
0100
0010
0000
0100
0001
0001
0000
,
0001
0000
0100
0001
1000
0010
0100
0010
,
0001
0100
0010
0000
0100
0001
0001
0000
,
0001
0000
0100
0001
1000
0010
0100
0010
,
0001
0100
0010
0000
0100
0001
0001
0000
,
0001
0000
0100
0001
1000
0010
0100
0010
,
0001
0100
0010
0000
0100
0001
0001
0000
,
0001
0000
0100
0001
1000
0010
0100
0010
,
0001
0100
0010
0000
0100
0001
0001
0000
,
0001
0000
0100
0001
1000
0010
0100
0010
,
0001
0100
0010
0000
0100
0001
0001
0000
,
0001
0000
0100
0001
1000
0010
0100
0010
,
0001
0100
0010
0000
0100
0001
0001
0000
,
1000
0000
0001
0000
0000
0100
0010
0000
,
0000
0000
1000
0000
0010
1000
0000
0100
,
1000
0010
1000
0000
0001
0100
0001
0000
,
0001
0000
1010
0000
0001
1000
0001
1000
,
1000
0010
0100
0000
0001
0010
0001
0100
,
0001
0000
1010
0000
0001
1000
0001
1000
,
1000
0010
1000
0000
0001
0100
0001
0000
,
0001
0000
0100
0000
0001
0010
0100
0010
,
0001
1000
0100
1000
0010
0001
0001
0000
,
1100
0000
0100
0000
0001
0100
0001
0000
,
1000
0000
0100
1000
0001
1000
0000
0000
,
1100
0000
0100
0000
0001
0100
0001
0000
,
1100
0000
0100
0010
0001
0010
1000
0000
,
0110
0000
0100
0000
1001
0000
0001
1000
,
1000
0000
1001
0000
0010
0100
0000
0000
,
1000
0001
0100
0010
0100
0001
0010
0001
,
1000
0001
0100
0000
0001
1000
0010
1000
,
0001
0000
1100
0000
1000
0001
1000
1000
,
0001
0000
0100
0000
0001
0010
0100
0010
,
0001
0000
0010
0001
1000
0001
0010
1000
,
0001
0000
1010
0000
0001
1000
0001
1000
,
1000
0000
0011
0000
1000
0001
1000
0001
,
1000
0010
1000
0000
0001
0100
0001
0000
,
0001
0000
0000
0100
0001
0000
0000
0000
,
0000
0000
1000
0000
0100
1000
0010
0100
,
0001
0000
1010
0000
0001
1000
0001
1000
,
1000
0010
1000
0000
0001
0100
0001
0000
,
1000
0000
0001
0000
1000
0100
1000
0001
,
1000
0010
1000
0000
0001
0100
0001
0000
,
0001
0010
0001
1000
0000
0000
0000
0000
,
0000
0000
0000
0000
0000
0000
0000
0000
,
0000
0000
0000
0000
0000
0000
0000
0000
,
0000
0000
0000
0000
0000
0000
0000
0000
,
0000
0000
0000
0000
0000
0000
0000
0000
,
0000
0000
0000
0000
0000
0000
0000
0000
,
0000
0000
0000
0000
0000
0000
0000
0000
,
0000
0000
0000
0000
0000
0000
0000
0000
,
0000
0000
0000
0000
0000
0000
0000
0000
,
0000
0000
0000
0000
0000
0000
0000
0000
,
0000
0000
0000
0000
0000
0000
0000
0000
,
0000
0000
0000
0000
0000
0000
0000
0000
,
0000
0000
0000
0000
0000
0000
0000
0000
,
0000
0000
0000
0000
0000
0000
0000
0000
,
0000
0000
0000
0000
0000
0000
0000
0000
,
0000
0000
0000
0000
0000
0000
0000
0000
,
0000
0000
0000
0000
0000
0000
0000
0000
,
0000
0000
0000
0000
0000
0000
0000
0000
,
0000
0000
0000
0000
0000
0000
0000
0000
,
;

//---------------dance-single - Heavy----------------
#NOTES:
     dance-single:
     Heavy:
     Hard:
     8:
     0.477383,0.457886,0.163713,0.000000,0.000000,694.000000,660.000000,34.000000,0.000000,0.000000,0.000000,0.477383,0.457886,0.163713,0.000000,0.000000,694.000000,660.000000,34.000000,0.000000,0.000000,0.000000:
0000
0000
0000
0000
0000
0000
2000
0000
,
1000
0000
0000
0000
1000
0000
0001
0000
,
0001
0000
3010
0000
0100
0001
1000
0001
,
0001
0010
0100
1000
0001
1000
1000
0100
,
0001
1000
0010
0000
0100
0010
1000
0100
,
0001
0010
0100
1000
0001
1000
1000
0100
,
0001
1000
0010
0000
0100
0010
1000
0100
,
0001
0010
0100
1000
0001
1000
1000
0100
,
0001
1000
0010
0000
0100
0010
1000
0100
,
0001
0010
0100
1000
0001
1000
1000
0100
,
0001
1000
0010
0000
0100
0010
1000
0100
,
1000
0000
1001
0000
0100
0001
0001
0100
,
0001
1000
0010
0000
0100
0010
1000
0100
,
0001
0010
0100
1000
0001
1000
1000
0100
,
0001
1000
0010
0000
0100
0010
1000
0100
,
0001
0010
0100
1000
0001
1000
1000
0000
,
0101
0000
0001
0010
0100
1000
0100
1000
,
0001
0010
0100
1000
0001
1000
1000
0000
,
0101
0000
0001
0010
0100
1000
0100
1000
,
0001
0010
0100
1000
0001
1000
1000
0000
,
0101
0000
0001
0010
0100
1000
0100
1000
,
0001
0010
0100
1000
0001
1000
1000
0000
,
0101
0000
0001
0010
0100
1000
0100
1000
,
0001
0010
0100
1000
0001
1000
1000
0000
,
0101
0000
0001
0010
0100
1000
0100
1000
,
0001
0010
0100
1000
0001
1000
1000
0000
,
1010
0000
0100
0010
0100
1000
0010
1000
,
0001
0010
0100
1000
0001
1000
1000
0000
,
0101
0000
0001
0010
0100
1000
0100
1000
,
0001
0010
0100
1000
0001
1000
1000
0000
,
0101
0000
0001
0010
0100
1000
0100
1000
,
0001
0010
0100
1000
0001
1000
1000
0000
,
0101
0000
0001
0010
0100
1000
0100
1000
,
0001
0010
0100
1000
0001
1000
1000
0100
,
0001
0100
0010
0000
0100
0001
1000
0001
,
0001
0010
0100
1000
0001
1000
1000
0100
,
0001
1000
0010
0000
0100
0010
1000
0100
,
1000
0001
1000
0000
0100
1000
0010
0000
,
1000
0010
0100
0010
0100
0001
0010
0001
,
0001
0010
0100
1000
0001
1000
1000
0000
,
0101
0000
0001
0010
0100
1000
0100
1000
,
0001
0010
0100
1000
0001
1000
1000
0100
,
0001
1000
0010
0000
0100
0010
1000
0100
,
0001
0010
0100
1000
0001
1000
1000
0000
,
0101
0000
0001
0010
0100
1000
0100
1000
,
0001
0010
0100
1000
0001
1000
1000
0100
,
0001
1000
0010
0000
0100
0010
1000
0100
,
0001
0010
0100
1000
0001
1000
1000
0000
,
0101
0000
0001
0010
0100
1000
0100
1000
,
0001
1000
0100
0010
0010
0001
0000
0000
,
0001
0000
0101
0000
0010
0100
0001
0100
,
0001
0010
0100
1000
0001
1000
1000
0000
,
0101
0000
0001
0010
0100
1000
0100
1000
,
0001
0010
0100
1000
0001
1000
1000
0000
,
0101
0000
0001
0010
0100
1000
0100
1000
,
0001
0010
0100
1000
0001
1000
1000
0000
,
0101
0000
0001
0010
0100
1000
0100
1000
,
0001
0010
0100
1000
0001
1000
1000
0000
,
0101
0000
0001
0010
0100
1000
0100
1000
,
0001
0010
0100
1000
0001
1000
1000
0000
,
0101
0000
0001
0010
0100
1000
0100
1000
,
0001
0010
0100
1000
0001
1000
1000
0000
,
0101
0000
0001
0010
0100
1000
0100
1000
,
0001
0010
0100
1000
0001
1000
1000
0000
,
1010
0000
0100
0010
0000
0001
0100
0000
,
0001
0100
0010
0000
0100
0001
1000
0001
,
1000
0100
1000
0100
1000
0010
1000
1000
,
1000
0000
1100
0000
0001
0010
0001
0010
,
0001
0010
0001
0100
0001
0010
0100
0010
,
1000
0000
1100
0000
0001
0010
0001
0010
,
1000
0100
1000
0100
1000
0010
1000
1000
,
1000
0000
0100
0010
0100
0010
0001
0010
,
0001
1000
0100
0010
0001
0010
0010
0000
,
1100
0000
0010
0000
0100
0001
0100
0001
,
1000
0001
0100
0001
0010
0100
1000
0000
,
1100
0000
0010
0000
0100
0001
0100
0000
,
1001
0000
0100
0000
1000
0100
1000
0000
,
0011
0000
0001
0000
1001
0000
0010
0100
,
0001
0000
1010
0000
0001
1000
0100
0010
,
1000
0000
0010
0000
0100
0001
0010
0001
,
1000
0001
1000
0010
1000
0100
0010
0001
,
0001
0000
0011
0000
1000
0100
0010
0010
,
1000
0000
0100
0010
0100
0010
0001
0010
,
1000
0000
1001
0000
0010
0001
0010
0001
,
1000
0000
1100
0000
0001
0010
0001
0010
,
0001
0000
0011
0000
1000
0100
1000
0100
,
1000
0100
1000
0100
1000
0010
1000
1000
,
1000
0010
0010
0100
0001
0010
0001
0001
,
0000
1000
0100
0000
0010
1000
0010
0100
,
1000
0000
1100
0000
0001
0010
0001
0010
,
1000
0100
1000
0100
1000
0010
1000
1000
,
0001
1000
0010
0000
0100
0010
1000
0100
,
1000
0100
1000
0100
1000
0010
1000
1000
,
0001
0100
0001
0010
0001
0010
0010
0010
,
0000
0000
0000
0000
0000
0000
0000
1000
,
0000
0000
0000
0000
0000
0000
0000
0001
,
0000
0000
0000
0000
0000
0000
0000
0001
,
0000
0000
0000
0000
0000
0000
0000
0001
,
0000
0000
0000
0000
0000
0000
0000
1000
,
0000
0000
0000
0000
0000
0000
0000
0001
,
0000
0000
0000
0000
0000
0000
0000
1000
,
0000
0000
0000
0000
0000
0000
0000
0001
,
0000
0000
0000
0000
0000
0000
0000
0001
,
0000
0000
0000
0000
0000
0000
0000
0001
,
0000
0000
0000
0000
0000
0000
0000
1000
,
0000
0000
0000
0000
0000
0000
0000
0001
,
0000
0000
0000
0000
0000
0000
0000
0001
,
0000
0000
0000
0000
0000
0000
0000
1000
,
0000
0000
0000
0000
0000
0000
0000
1000
,
0000
0000
0000
0000
0000
0000
0000
1000
,
0000
0000
0000
0000
0000
0000
0000
1000
,
0000
0000
0000
0000
0000
0000
0000
0001
,
;
