#TITLE:Deadpool Boogie;
#SUBTITLE:;
#ARTIST:Dancing Monkeys Project;
#TITLETRANSLIT:;
#SUBTITLETRANSLIT:;
#ARTISTTRANSLIT:;
#GENRE:;
#CREDIT:Gorilla v1.1.3 (Dancing Monkeys v1.06);
#BANNER:Deadpool-logo-color.png;
#BACKGROUND:hq720.png;
#LYRICSPATH:;
#CDTITLE:;
#MUSIC:Marvel vs Capcom 3 - Theme of Deadpool.mp3;
#OFFSET:-1.576440;
#SAMPLESTART:41.579887;
#SAMPLELENGTH:12.000000;
#SELECTABLE:YES;
#BPMS:0.000000=155.987000
;
#STOPS:327.000000=1.539000
;
#BGCHANGES:;
#KEYSOUNDS:;
#ATTACKS:;

//---------------dance-single - Basic----------------
#NOTES:
     dance-single:
     Basic:
     Easy:
     3:
     0.136647,0.107085,0.000000,0.000000,0.000000,205.000000,205.000000,0.000000,0.000000,0.000000,0.000000,0.136647,0.107085,0.000000,0.000000,0.000000,205.000000,205.000000,0.000000,0.000000,0.000000,0.000000:
0001
0001
0001
1000
,
1000
0010
0010
0001
,
0001
0100
0010
1000
,
1000
0100
0100
1000
,
1000
0010
0010
1000
,
1000
0001
0001
0100
,
0100
0001
0001
0001
,
0100
0010
1000
0001
,
0100
0010
0100
0001
,
0100
0001
1000
0010
,
0001
1000
0100
0010
,
0001
0100
0010
1000
,
0100
0010
0100
0001
,
1000
0010
1000
0001
,
1000
0100
0010
0001
,
1000
0100
0100
1000
,
1000
0010
0010
0001
,
0001
1000
1000
0010
,
0010
0100
0100
0001
,
1000
0100
0010
0001
,
1000
0010
0100
1000
,
0001
0010
0100
1000
,
0001
0100
0001
0010
,
1000
0010
0100
1000
,
0100
0001
0010
1000
,
0001
0010
0100
1000
,
0010
0010
0010
0010
,
0001
0100
0010
0001
,
1000
0100
0010
1000
,
0010
1000
0001
0010
,
0001
0100
0010
0100
,
0001
1000
0010
0001
,
1000
0100
0010
1000
,
0010
1000
0001
0010
,
1000
1000
1000
0001
,
0001
0001
1000
1000
,
1000
0001
0001
1000
,
1000
0001
0001
1000
,
1000
0100
0010
0001
,
1000
1000
0010
0001
,
1000
0100
0010
0100
,
1000
0010
0100
0001
,
0001
0100
0010
0100
,
1000
0001
0100
1000
,
1000
0100
0010
1000
,
0100
0001
0010
0100
,
0001
0100
0010
0010
,
0010
0100
0100
1000
,
1000
0100
0100
1000
,
1000
0010
0010
1000
,
1000
0010
0010
0100
,
0100
0000
0000
0000
;

//---------------dance-single - Basic----------------
#NOTES:
     dance-single:
     :
     Beginner:
     3:
     0.068657,0.059492,0.000000,0.000000,0.000000,103.000000,103.000000,0.000000,0.000000,0.000000,0.000000,0.068657,0.059492,0.000000,0.000000,0.000000,103.000000,103.000000,0.000000,0.000000,0.000000,0.000000:
// measure 0
0001
0000
0001
0000
,  // measure 1
1000
0000
0010
0000
,  // measure 2
0001
0000
0010
0000
,  // measure 3
1000
0000
0100
0000
,  // measure 4
1000
0000
0010
0000
,  // measure 5
1000
0000
0001
0000
,  // measure 6
0100
0000
0001
0000
,  // measure 7
0100
0000
1000
0000
,  // measure 8
0100
0000
0100
0000
,  // measure 9
0100
0000
1000
0000
,  // measure 10
0001
0000
0100
0000
,  // measure 11
0001
0000
0010
0000
,  // measure 12
0100
0000
0100
0000
,  // measure 13
1000
0000
1000
0000
,  // measure 14
1000
0000
0010
0000
,  // measure 15
1000
0000
0100
0000
,  // measure 16
1000
0000
0010
0000
,  // measure 17
0001
0000
1000
0000
,  // measure 18
0010
0000
0100
0000
,  // measure 19
1000
0000
0010
0000
,  // measure 20
1000
0000
0100
0000
,  // measure 21
0001
0000
0100
0000
,  // measure 22
0001
0000
0001
0000
,  // measure 23
1000
0000
0100
0000
,  // measure 24
0100
0000
0010
0000
,  // measure 25
0001
0000
0100
0000
,  // measure 26
0010
0000
0010
0000
,  // measure 27
0001
0000
0010
0000
,  // measure 28
1000
0000
0010
0000
,  // measure 29
0010
0000
0001
0000
,  // measure 30
0001
0000
0010
0000
,  // measure 31
0001
0000
0010
0000
,  // measure 32
1000
0000
0010
0000
,  // measure 33
0010
0000
0001
0000
,  // measure 34
1000
0000
1000
0000
,  // measure 35
0001
0000
1000
0000
,  // measure 36
1000
0000
0001
0000
,  // measure 37
1000
0000
0001
0000
,  // measure 38
1000
0000
0010
0000
,  // measure 39
1000
0000
0010
0000
,  // measure 40
1000
0000
0010
0000
,  // measure 41
1000
0000
0100
0000
,  // measure 42
0001
0000
0010
0000
,  // measure 43
1000
0000
0100
0000
,  // measure 44
1000
0000
0010
0000
,  // measure 45
0100
0000
0010
0000
,  // measure 46
0001
0000
0010
0000
,  // measure 47
0010
0000
0100
0000
,  // measure 48
1000
0000
0100
0000
,  // measure 49
1000
0000
0010
0000
,  // measure 50
1000
0000
0010
0000
,  // measure 51
0100
0000
0000
0000
;
