#TITLE:The Worst - (Jersey Club Remix) DJ Tev;
#SUBTITLE:;
#ARTIST:Dancing Monkeys Project;
#TITLETRANSLIT:;
#SUBTITLETRANSLIT:;
#ARTISTTRANSLIT:;
#GENRE:;
#CREDIT:Gorilla v1.1.3 (Dancing Monkeys v1.06);
#BANNER:;
#BACKGROUND:;
#LYRICSPATH:;
#CDTITLE:;
#MUSIC:The Worst - (Jersey Club Remix) DJ Tev.mp3;
#OFFSET:-0.133229;
#SAMPLESTART:44.581142;
#SAMPLELENGTH:12.000000;
#SELECTABLE:YES;
#BPMS:0.000000=134.988998
;
#STOPS:
;
#BGCHANGES:;
#KEYSOUNDS:;
#ATTACKS:;

//---------------dance-single - Basic----------------
#NOTES:
     dance-single:
     Basic:
     Easy:
     3:
     0.264943,0.242476,0.000000,0.000000,0.000000,185.000000,185.000000,0.000000,0.000000,0.000000,0.000000,0.264943,0.242476,0.000000,0.000000,0.000000,185.000000,185.000000,0.000000,0.000000,0.000000,0.000000:
// measure 0
0000
0000
0000
0000
,  // measure 1
0000
1000
0000
0001
,  // measure 2
0000
1000
0000
0001
,  // measure 3
0000
1000
0000
0001
,  // measure 4
0000
1000
0000
0001
,  // measure 5
0000
1000
0000
0001
,  // measure 6
0000
1000
0000
0001
,  // measure 7
0000
1000
0000
0001
,  // measure 8
1000
0100
0010
0010
,  // measure 9
1000
0010
0100
1000
,  // measure 10
1000
0100
0010
0001
,  // measure 11
0001
0100
0010
0001
,  // measure 12
0001
0100
0010
0010
,  // measure 13
1000
0100
0010
0010
,  // measure 14
0001
0010
0100
0100
,  // measure 15
0001
1000
1000
0000
,  // measure 16
0010
0001
0100
0010
,  // measure 17
1000
0001
0010
0100
,  // measure 18
1000
0001
0010
0100
,  // measure 19
0010
0001
0100
0010
,  // measure 20
1000
0001
0010
0100
,  // measure 21
1000
0001
0100
0010
,  // measure 22
1000
0001
0100
0010
,  // measure 23
1000
0001
0010
0100
,  // measure 24
1000
0100
1000
0001
,  // measure 25
1000
0100
1000
0001
,  // measure 26
0001
0100
0001
1000
,  // measure 27
1000
0010
1000
0001
,  // measure 28
0100
0001
0100
0010
,  // measure 29
0001
1000
0100
0010
,  // measure 30
1000
0001
0100
0010
,  // measure 31
1000
0001
0100
0010
,  // measure 32
0001
1000
0010
1000
,  // measure 33
0001
1000
0100
1000
,  // measure 34
1000
0001
0010
0001
,  // measure 35
0001
1000
0100
1000
,  // measure 36
1000
0001
0010
0001
,  // measure 37
1000
0001
0100
0001
,  // measure 38
0001
1000
0100
1000
,  // measure 39
0010
0001
0000
0000
,  // measure 40
1000
0100
0010
0000
,  // measure 41
0001
0100
0010
0000
,  // measure 42
0001
0010
0100
0000
,  // measure 43
0001
0000
1000
0000
,  // measure 44
1000
0100
0010
0000
,  // measure 45
1000
0010
0100
0000
,  // measure 46
0001
0100
0010
0000
,  // measure 47
0001
0000
1000
0000
,  // measure 48
0010
0001
0100
0010
,  // measure 49
0001
1000
0100
0010
,  // measure 50
0001
1000
0010
0100
,  // measure 51
0001
1000
0100
0010
,  // measure 52
0001
1000
0100
0010
,  // measure 53
1000
0001
0100
0010
;

//---------------dance-single - Standard----------------
#NOTES:
     dance-single:
     Standard:
     Medium:
     5:
     0.336549,0.378063,0.260646,0.000000,0.000000,235.000000,209.000000,26.000000,0.000000,0.000000,0.000000,0.336549,0.378063,0.260646,0.000000,0.000000,235.000000,209.000000,26.000000,0.000000,0.000000,0.000000:
0000
0000
0000
0000
0000
0000
0000
0000
,
0000
0000
0000
0000
0000
0000
0000
0000
,
0000
0000
0000
0000
0000
0000
0000
0000
,
0000
0000
0000
0000
0000
0000
0000
0000
,
0000
0000
0000
0000
0000
0000
0000
0000
,
0000
0000
0000
0000
0000
0000
0000
0000
,
0000
0000
0000
0000
0000
0000
0000
0000
,
0000
0000
0000
0000
0000
0000
0000
0000
,
1000
0000
0100
0000
0010
0000
0100
0000
,
0001
0000
0010
0000
0100
0000
0010
0000
,
0001
0000
0100
0000
0010
0000
0100
0000
,
1000
0000
0100
0000
0010
0000
0100
0000
,
0001
0000
0100
0000
0010
0000
0100
0000
,
0001
0000
0010
0000
0100
0000
0010
0000
,
1000
0000
0100
0000
0010
0000
0100
0000
,
0001
0000
0100
0000
0001
0000
0000
0000
,
0101
0000
0001
0000
0100
0001
0100
0000
,
0101
0000
0001
0000
0100
0001
0100
0000
,
1010
0000
1000
0000
0010
1000
0010
0000
,
1010
0000
1000
0000
0010
1000
0010
0000
,
0011
0000
0001
0000
0010
0001
0010
0000
,
0011
0000
0001
0000
0010
0001
0010
0000
,
1100
0000
1000
0000
0100
1000
0100
0000
,
1010
0000
1000
0000
0010
1000
0010
1000
,
1000
0000
0001
0000
0010
0000
0100
1000
,
0001
0000
1000
0000
0010
0000
0100
0001
,
0001
0000
1000
0000
0100
0000
0010
0001
,
0001
0000
1000
0000
0010
0000
0100
0000
,
0101
0000
0001
0000
0100
0001
0100
0000
,
1100
0000
1000
0000
0100
1000
0100
0000
,
1100
0000
1000
0000
0100
1000
0100
0000
,
0101
0000
0001
0000
0100
0001
0100
0000
,
1001
0000
0001
0000
1000
0100
0010
0000
,
1001
0000
1000
0000
0001
0100
0010
0000
,
1001
0000
1000
0000
0001
0100
0010
0000
,
1001
0000
0001
0000
1000
0100
0010
0000
,
1001
0000
1000
0000
0001
0010
0100
0000
,
1001
0000
1000
0000
0001
0010
0100
0000
,
1001
0000
1000
0000
0001
0100
0010
0000
,
0110
0000
0010
0000
0000
0000
0000
0000
,
1000
0000
0100
0000
0010
0000
0100
0000
,
0001
0000
0010
0000
0100
0000
0010
0000
,
1000
0000
0010
0000
0100
0000
0010
0000
,
0001
0000
0100
0000
0001
0000
0000
0000
,
1000
0000
0100
0000
0010
0000
0100
0000
,
1000
0000
0100
0000
0010
0000
0100
0000
,
0001
0000
0010
0000
0100
0000
0010
0000
,
0001
0000
0100
0000
0001
0000
0000
0000
,
0101
0000
0001
0000
0100
0001
0100
0000
,
1100
0000
1000
0000
0100
1000
0100
0000
,
0101
0000
0001
0000
0100
0001
0100
0000
,
0011
0000
0001
0000
0010
0001
0010
0000
,
0101
0000
0001
0000
0100
0001
0100
0000
,
1100
0000
1000
0000
0100
1000
0100
1000
,
;

//---------------dance-single - Heavy----------------
#NOTES:
     dance-single:
     Heavy:
     Hard:
     5:
     0.343710,0.378063,0.300746,0.000000,0.000000,240.000000,210.000000,30.000000,0.000000,0.000000,0.000000,0.343710,0.378063,0.300746,0.000000,0.000000,240.000000,210.000000,30.000000,0.000000,0.000000,0.000000:
0000
0000
0000
0000
0000
0000
0000
0000
,
0000
0000
0000
0000
0000
0000
0000
0000
,
0000
0000
0000
0000
0000
0000
0000
0000
,
0000
0000
0000
0000
0000
0000
0000
0000
,
0000
0000
0000
0000
0000
0000
0000
0000
,
0000
0000
0000
0000
0000
0000
0000
0000
,
0000
0000
0000
0000
0000
0000
0000
0000
,
0000
0000
0000
0000
0000
0000
0000
0000
,
0001
0000
0100
0000
0010
0000
0000
0100
,
0001
0000
0100
0000
0010
0000
0000
0100
,
1000
0000
0100
0000
0010
0000
0000
0100
,
0001
0000
0100
0000
0010
0000
0000
0100
,
1000
0000
0100
0000
0010
0000
0000
0100
,
0001
0000
0100
0000
0010
0000
0000
0100
,
1000
0000
0100
0000
0010
0000
0000
0100
,
1000
0000
0100
0000
1000
0000
0000
0000
,
1100
0000
0001
0000
0100
0010
0100
0000
,
0101
0000
1000
0000
0100
0010
0100
0000
,
0011
0000
1000
0000
0010
0100
0010
0000
,
0011
0000
1000
0000
0010
0100
0010
0000
,
1100
0000
0001
0000
0100
0010
0100
0000
,
0101
0000
1000
0000
0100
0010
0100
0000
,
1100
0000
0001
0000
0100
0010
0100
0000
,
1100
0000
0001
0000
0100
0010
0100
0000
,
0101
0000
1000
0000
0100
0010
0001
0000
,
0101
0000
1000
0000
0100
0010
0001
0000
,
1010
0000
0001
0000
0010
0100
1000
0000
,
1010
0000
0001
0000
0010
0100
1000
0000
,
1100
0000
0001
0000
0100
0010
0100
0000
,
1010
0000
0001
0000
0010
0100
0010
0000
,
0101
0000
1000
0000
0100
0010
0100
0000
,
0101
0000
1000
0000
0100
0010
0100
0000
,
0011
0000
0100
0000
0010
0001
0100
0000
,
1010
0000
0100
0000
0010
1000
0100
0000
,
0011
0000
0100
0000
0010
0001
0100
0000
,
1100
0000
0010
0000
0100
1000
0010
0000
,
1100
0000
0010
0000
0100
1000
0010
0000
,
0011
0000
0100
0000
0010
0001
0100
0000
,
1010
0000
0100
0000
0010
1000
0100
0000
,
0011
0000
0100
0001
0000
0000
0000
0000
,
0001
0000
0100
0000
0010
0000
0000
0100
,
0001
0000
0100
0000
0010
0000
0000
0100
,
0001
0000
0010
0000
0100
0000
0000
0010
,
1000
0000
0100
0000
1000
0000
0000
0000
,
0001
0000
0100
0000
0010
0000
0000
0100
,
1000
0000
0100
0000
0010
0000
0000
0100
,
1000
0000
0010
0000
0100
0000
0000
0010
,
1000
0000
0100
0000
1000
0000
0000
0000
,
1100
0000
0001
0000
0100
0010
0100
0000
,
1100
0000
0001
0000
0100
0010
0100
0000
,
0101
0000
1000
0000
0100
0010
0100
0000
,
1010
0000
0001
0000
0010
0100
0010
0000
,
0011
0000
1000
0000
0010
0100
0010
0000
,
0011
0000
1000
0000
0010
0100
0010
0100
,
;
