#TITLE:THE WORLD REVOLVING;
#SUBTITLE:[TaroNuke]0;
#ARTIST:Unknown artist;
#TITLETRANSLIT:;
#SUBTITLETRANSLIT:;
#ARTISTTRANSLIT:;
#GENRE:;
#CREDIT:;
#BANNER:maxresdefault.png;
#BACKGROUND:0maxresdefault.png;
#LYRICSPATH:;
#CDTITLE:;
#MUSIC:world revolving.ogg;
#OFFSET:0.000000;
#SAMPLESTART:0.000000;
#SAMPLELENGTH:12.000000;
#SELECTABLE:YES;
#BPMS:0.000000=120.000000
;
#STOPS:
;
#BGCHANGES:;
#KEYSOUNDS:;
#ATTACKS:;

//---------------dance-single - ----------------
#NOTES:
     dance-single:
     :
     Easy:
     1:
     0.209282,0.221463,0.000000,0.109873,0.000000,160.000000,160.000000,0.000000,12.000000,0.000000,0.000000,0.209282,0.221463,0.000000,0.109873,0.000000,160.000000,160.000000,0.000000,12.000000,0.000000,0.000000:
// measure 0
0000
1000
0001
0010
,  // measure 1
0010
2000
0000
0000
,  // measure 2
0000
0000
3000
0100
,  // measure 3
0010
0001
1000
0010
,  // measure 4
2000
0000
0000
0000
,  // measure 5
0000
3000
0010
0001
,  // measure 6
1000
0001
1000
0002
,  // measure 7
0000
0000
0000
0003
,  // measure 8
1000
0001
1000
0010
,  // measure 9
0100
2000
0000
0000
,  // measure 10
0000
0000
3000
0000
,  // measure 11
0100
0001
0010
0100
,  // measure 12
0001
0010
1000
0100
,  // measure 13
1000
0010
0100
0001
,  // measure 14
1000
0010
0100
0001
,  // measure 15
1000
0010
0100
0001
,  // measure 16
0010
0100
1000
0100
,  // measure 17
0001
0010
0100
0001
,  // measure 18
1000
0010
0100
0001
,  // measure 19
0010
0100
1000
0010
,  // measure 20
1000
0001
0010
0100
,  // measure 21
1000
0010
0001
0010
,  // measure 22
0100
1000
0001
0010
,  // measure 23
0100
0001
0010
1000
,  // measure 24
0100
0010
1000
0001
,  // measure 25
0010
0100
1000
0001
,  // measure 26
0010
0100
1000
0010
,  // measure 27
0100
0001
0010
0100
,  // measure 28
0001
1000
0100
0010
,  // measure 29
0001
0010
0100
1000
,  // measure 30
0001
0010
0100
0010
,  // measure 31
0001
1000
0100
1000
,  // measure 32
0100
0020
0000
0000
,  // measure 33
0000
0000
0030
0200
,  // measure 34
0000
0000
0000
0300
,  // measure 35
0002
0000
0003
2000
,  // measure 36
0000
0000
0000
0000
,  // measure 37
0000
3000
2000
0000
,  // measure 38
0000
3000
0010
0020
,  // measure 39
0000
0000
0000
0030
,  // measure 40
0000
0200
0000
0000
,  // measure 41
0000
0300
0002
0000
,  // measure 42
0000
0000
0003
0000
,  // measure 43
0000
1000
0100
0010
,  // measure 44
0001
0010
0100
1000
,  // measure 45
0010
0100
0001
0010
,  // measure 46
1000
0100
0010
0001
,  // measure 47
0010
0100
1000
0010
,  // measure 48
0100
0001
0010
1000
,  // measure 49
0100
0010
0001
0010
,  // measure 50
0100
1000
0010
0100
,  // measure 51
0001
0010
0100
0001
,  // measure 52
1000
0100
0010
0001
,  // measure 53
0010
1000
0100
0010
;
