#TITLE:Terror Time Again;
#SUBTITLE:;
#ARTIST:Scooby Doo;
#TITLETRANSLIT:;
#SUBTITLETRANSLIT:;
#ARTISTTRANSLIT:;
#GENRE:;
#CREDIT:Gorilla v1.1.3 (Dancing Monkeys v1.06);
#BANNER:artworks-000128228985-1i7chi-t500x500.png;
#BACKGROUND:1_BxpmIfyw_1GwCObl-oznHA.png;
#LYRICSPATH:;
#CDTITLE:;
#MUSIC:onlymp3.to - Skycycle It s Terror Time Again Studio Version -puHKaxpD4MY-192k-1707081401.mp3;
#OFFSET:-1.420229;
#SAMPLESTART:39.222313;
#SAMPLELENGTH:12.000000;
#SELECTABLE:YES;
#BPMS:0.000000=158.720993
;
#STOPS:
;
#BGCHANGES:;
#KEYSOUNDS:;
#ATTACKS:;

//---------------dance-single - Basic----------------
#NOTES:
     dance-single:
     Basic:
     Easy:
     4:
     0.289117,0.282410,0.000000,0.038920,0.000000,208.000000,208.000000,0.000000,4.000000,0.000000,0.000000,0.289117,0.282410,0.000000,0.038920,0.000000,208.000000,208.000000,0.000000,4.000000,0.000000,0.000000:
1000
0000
0000
0010
,
0001
2000
0000
3000
,
0000
1000
1000
0000
,
0020
0000
0030
1000
,
1000
0010
0000
0000
,
0000
0010
0000
0000
,
0000
1000
0100
1000
,
0001
0010
0000
0100
,
0001
0001
1000
0010
,
0001
1000
0010
0010
,
0001
0001
0100
0001
,
0000
1000
0100
0010
,
1000
0000
1000
0001
,
1000
0010
1000
0100
,
0001
0010
0000
0100
,
1000
0000
1000
0001
,
1000
0000
0010
1000
,
0001
0100
0001
0000
,
1000
0000
1000
0001
,
0000
1000
0100
0010
,
1000
0010
0010
0000
,
1000
0000
1000
0001
,
1000
0010
0000
1000
,
0002
0003
1000
0020
,
0000
0000
0000
0030
,
1000
0010
1000
0010
,
0001
1000
0100
1000
,
1000
0010
0010
0001
,
0100
1000
0100
0010
,
0001
0100
0010
1000
,
1000
1000
0001
0100
,
0001
1000
0010
0100
,
0000
1000
0010
0100
,
1000
0000
1000
0001
,
0001
0001
0001
0000
,
0001
0010
0000
0100
,
0001
0100
0000
0010
,
1000
0010
0001
1000
,
1000
0100
0010
0000
,
1000
0000
0001
0010
,
0001
0010
0001
0100
,
0001
1000
0100
0010
,
0001
0100
0000
0010
,
0000
0001
1000
0001
,
0001
1000
0100
0001
,
0010
1000
0001
1000
,
0001
0100
0001
0000
,
0001
1000
0010
0010
,
0001
1000
0100
0100
,
1000
0100
0010
0100
,
0001
1000
0010
0010
,
0100
1000
0100
1000
,
0000
0000
0001
0100
,
1000
0010
0010
0000
,
0000
1000
0100
0010
,
0000
0001
0010
0100
,
0001
1000
0010
0100
,
1000
0100
0010
0100
,
1000
0010
0100
0000
,
0000
1000
0100
1000
,
1000
0000
1000
0001
,
0000
0001
0100
0010
,
1000
0010
0010
0000
,
0001
0001
1000
0010
,
0001
1000
0100
0000
;

//---------------dance-single - Basic----------------
#NOTES:
     dance-single:
     :
     Beginner:
     4:
     0.165408,0.156286,0.000000,0.029190,0.000000,119.000000,119.000000,0.000000,3.000000,0.000000,0.000000,0.165408,0.156286,0.000000,0.029190,0.000000,119.000000,119.000000,0.000000,3.000000,0.000000,0.000000:
// measure 0
1000
0000
0000
0010
,  // measure 1
0000
2000
0000
3000
,  // measure 2
0000
1000
0000
0000
,  // measure 3
0020
0000
0030
0000
,  // measure 4
1000
0000
0000
0000
,  // measure 5
0000
0010
0000
0000
,  // measure 6
0000
0010
0000
1000
,  // measure 7
0000
0010
0000
0100
,  // measure 8
0000
0001
0000
0010
,  // measure 9
0000
1000
0000
0010
,  // measure 10
0000
1000
0000
0001
,  // measure 11
0000
1000
0000
0010
,  // measure 12
0000
0000
0100
0000
,  // measure 13
0010
0000
1000
0000
,  // measure 14
0001
0000
0000
0100
,  // measure 15
0000
0000
0010
0000
,  // measure 16
1000
0000
0010
0000
,  // measure 17
0100
0000
0001
0000
,  // measure 18
0100
0000
1000
0000
,  // measure 19
0001
0000
0100
0000
,  // measure 20
1000
0000
0010
0000
,  // measure 21
1000
0000
0100
0000
,  // measure 22
1000
0000
0010
0000
,  // measure 23
0020
0000
0000
0000
,  // measure 24
0000
0000
0000
0030
,  // measure 25
0000
0100
0000
0010
,  // measure 26
0000
1000
0000
1000
,  // measure 27
0000
0010
0000
0001
,  // measure 28
0000
1000
0000
0010
,  // measure 29
0000
0100
0000
0001
,  // measure 30
0000
1000
0000
0100
,  // measure 31
0000
1000
0000
0100
,  // measure 32
0000
1000
0000
0100
,  // measure 33
0000
0001
0000
0010
,  // measure 34
0000
0001
0000
0100
,  // measure 35
0000
0010
0000
1000
,  // measure 36
0000
0100
0000
0001
,  // measure 37
0000
0010
0000
1000
,  // measure 38
0000
0100
0000
0001
,  // measure 39
0000
0100
0000
0001
,  // measure 40
0000
1000
0000
0100
,  // measure 41
0000
1000
0000
0010
,  // measure 42
0000
0100
0000
0010
,  // measure 43
0000
0001
0000
0010
,  // measure 44
0000
1000
0000
0001
,  // measure 45
0000
0100
0000
1000
,  // measure 46
0000
0100
0000
0010
,  // measure 47
0000
1000
0000
0010
,  // measure 48
0000
1000
0000
0001
,  // measure 49
0000
1000
0000
0100
,  // measure 50
0000
1000
0000
0010
,  // measure 51
0000
0001
0000
1000
,  // measure 52
0000
0010
0000
0100
,  // measure 53
0000
0010
0000
0100
,  // measure 54
0000
1000
0000
0010
,  // measure 55
0000
0001
0000
0100
,  // measure 56
0000
1000
0000
0010
,  // measure 57
0000
1000
0000
0100
,  // measure 58
0000
0010
0000
0001
,  // measure 59
0000
1000
0000
0010
,  // measure 60
0000
0100
0000
0001
,  // measure 61
0000
0100
0000
0001
,  // measure 62
0000
0010
0000
0100
,  // measure 63
0000
0001
0000
0010
,  // measure 64
0000
1000
0000
0000
;
