#VERSION:0.83;
#TITLE:TEKKEN 7 Poolside;
#SUBTITLE:;
#ARTIST:Tekken;
#TITLETRANSLIT:;
#SUBTITLETRANSLIT:;
#ARTISTTRANSLIT:;
#GENRE:;
#ORIGIN:;
#CREDIT:Gorilla v1.1.3 (Dancing Monkeys v1.06);
#BANNER:;
#BACKGROUND:;
#PREVIEWVID:;
#JACKET:;
#CDIMAGE:;
#DISCIMAGE:;
#LYRICSPATH:;
#CDTITLE:;
#MUSIC:TEKKEN 7 LIDIA STAGE THEME - Island Paradise [ Poolside ] Extended Video Mix OST.mp3;
#OFFSET:-0.746190;
#SAMPLESTART:42.415127;
#SAMPLELENGTH:12.000000;
#SELECTABLE:YES;
#BPMS:0.000=143.992;
#STOPS:;
#DELAYS:;
#WARPS:;
#TIMESIGNATURES:0.000=4=4;
#TICKCOUNTS:0.000=4;
#COMBOS:0.000=1;
#SPEEDS:0.000=1.000=0.000=0;
#SCROLLS:0.000=1.000;
#FAKES:;
#LABELS:0.000=Song Start;
#BGCHANGES:;
#KEYSOUNDS:;
#ATTACKS:
;

//---------------dance-single - Basic----------------
#NOTEDATA:;
#CHARTNAME:Basic;
#STEPSTYPE:dance-single;
#DESCRIPTION:Basic;
#CHARTSTYLE:;
#DIFFICULTY:Easy;
#METER:3;
#RADARVALUES:0.201796,0.195644,0.000000,0.046641,0.000000,212.000000,212.000000,0.000000,7.000000,0.000000,0.000000,0.000000,0.000000,0.000000,0.201796,0.195644,0.000000,0.046641,0.000000,212.000000,212.000000,0.000000,7.000000,0.000000,0.000000,0.000000,0.000000,0.000000;
#CREDIT:Basic;
#NOTES:
// measure 0
0000
0000
0001
0001
,  // measure 1
0001
1000
0000
0002
,  // measure 2
0000
0000
0000
0000
,  // measure 3
0000
0000
0003
0010
,  // measure 4
0000
0001
0100
0010
,  // measure 5
0001
1000
0000
0100
,  // measure 6
0001
0020
0000
0000
,  // measure 7
0000
0030
0000
0001
,  // measure 8
0001
0001
1000
0001
,  // measure 9
0001
1000
0000
0100
,  // measure 10
0001
1000
0000
0100
,  // measure 11
0001
1000
0000
0100
,  // measure 12
1000
0001
0000
0010
,  // measure 13
1000
0001
0000
0100
,  // measure 14
0001
1000
0000
0010
,  // measure 15
1000
0000
1000
0000
,  // measure 16
0010
0000
0000
0000
,  // measure 17
0000
0000
0100
0100
,  // measure 18
1000
0010
0010
0001
,  // measure 19
1000
1000
0001
0100
,  // measure 20
0100
1000
0001
0001
,  // measure 21
1000
0010
0010
0001
,  // measure 22
1000
1000
0001
0100
,  // measure 23
0100
1000
0001
0001
,  // measure 24
1000
0010
0010
0001
,  // measure 25
0001
0100
0100
0001
,  // measure 26
0001
1000
0010
0010
,  // measure 27
0001
1000
1000
0010
,  // measure 28
0001
0001
1000
0100
,  // measure 29
0100
0001
0001
1000
,  // measure 30
0010
0010
0001
1000
,  // measure 31
0010
0002
0000
0000
,  // measure 32
0003
0020
0000
0000
,  // measure 33
0000
0030
0001
0100
,  // measure 34
0001
0010
0100
0100
,  // measure 35
1000
1000
0001
0100
,  // measure 36
1000
1000
0001
0100
,  // measure 37
0001
0001
1000
0100
,  // measure 38
0100
0010
0010
0001
,  // measure 39
1000
1000
0001
0010
,  // measure 40
1000
1000
0001
0100
,  // measure 41
0100
0001
0100
0010
,  // measure 42
0001
0010
0010
0001
,  // measure 43
1000
1000
1000
0100
,  // measure 44
1000
1000
1000
0001
,  // measure 45
1000
1000
0001
0100
,  // measure 46
0001
0010
0010
0100
,  // measure 47
0100
1000
0002
0000
,  // measure 48
0000
0000
0000
0003
,  // measure 49
0000
2000
0000
0000
,  // measure 50
0000
3000
0100
0010
,  // measure 51
1000
0010
0001
0100
,  // measure 52
0001
0001
1000
0010
,  // measure 53
0001
0001
1000
0010
,  // measure 54
1000
1000
1000
0001
,  // measure 55
1000
1000
0001
0100
,  // measure 56
0001
0001
1000
0100
,  // measure 57
1000
1000
0001
0010
,  // measure 58
1000
1000
1000
0001
,  // measure 59
1000
1000
0001
0100
,  // measure 60
0100
0001
0100
0010
,  // measure 61
1000
1000
0001
0100
,  // measure 62
1000
1000
0010
0010
,  // measure 63
0001
1000
0100
0100
,  // measure 64
1000
1000
0020
0000
,  // measure 65
0000
0030
0000
0000
;
