#TITLE:Leroy Smith Theme (The Solitary Warrior);
#SUBTITLE:;
#ARTIST:TEKKEN;
#TITLETRANSLIT:;
#SUBTITLETRANSLIT:;
#ARTISTTRANSLIT:;
#GENRE:;
#CREDIT:Gorilla v1.1.3 (Dancing Monkeys v1.06);
#BANNER:thumb-1920-1356986.png;
#BACKGROUND:2383d0459fe9e0e3a632a1c5882ef4f3.png;
#LYRICSPATH:;
#CDTITLE:;
#MUSIC:Leroy Smith Theme (The Solitary Warrior) Game Version Full.mp3;
#OFFSET:-1.045079;
#SAMPLESTART:53.922359;
#SAMPLELENGTH:12.000000;
#SELECTABLE:YES;
#BPMS:0.000000=118.009094
;
#STOPS:
;
#BGCHANGES:;
#KEYSOUNDS:;
#ATTACKS:;

//---------------dance-single - Basic----------------
#NOTES:
     dance-single:
     Basic:
     Easy:
     3:
     0.208662,0.278981,0.107113,0.038950,0.000000,150.000000,139.000000,11.000000,4.000000,0.000000,0.000000,0.208662,0.278981,0.107113,0.038950,0.000000,150.000000,139.000000,11.000000,4.000000,0.000000,0.000000:
// measure 0
1000
0000
0000
1000
,  // measure 1
1000
1000
0000
0001
,  // measure 2
0000
0010
0000
1000
,  // measure 3
0001
0001
0001
0000
,  // measure 4
1000
1000
0001
0000
,  // measure 5
0001
0001
0010
0100
,  // measure 6
0000
0010
0010
0010
,  // measure 7
0010
0100
0000
0100
,  // measure 8
1000
1000
1000
1000
,  // measure 9
0001
0001
0010
0100
,  // measure 10
1000
0010
0010
0001
,  // measure 11
0001
0010
0001
0000
,  // measure 12
1001
0001
0001
0001
,  // measure 13
0001
0010
0010
0100
,  // measure 14
1000
0010
0001
1000
,  // measure 15
1000
0100
0100
0100
,  // measure 16
1001
1000
0001
0001
,  // measure 17
0000
0001
0010
0100
,  // measure 18
0000
1000
1000
0010
,  // measure 19
0100
0100
0100
0100
,  // measure 20
0000
1000
0000
0010
,  // measure 21
0000
0100
0000
1000
,  // measure 22
0000
0010
0000
0001
,  // measure 23
0000
0010
0000
0100
,  // measure 24
0000
0001
0000
0010
,  // measure 25
0000
1000
0000
0010
,  // measure 26
0000
0100
0000
0010
,  // measure 27
0000
0000
0001
0000
,  // measure 28
1001
0010
0001
0001
,  // measure 29
1001
1000
1000
1000
,  // measure 30
1001
0010
0010
0010
,  // measure 31
1001
1000
0001
0001
,  // measure 32
1001
0100
1000
0100
,  // measure 33
1001
0001
1000
1000
,  // measure 34
1001
0010
0100
0001
,  // measure 35
1001
0000
0001
0000
,  // measure 36
0010
0000
0000
0000
,  // measure 37
1000
1000
0001
0001
,  // measure 38
0010
0010
1000
1000
,  // measure 39
0010
0010
0100
0100
,  // measure 40
0002
0000
0000
0003
,  // measure 41
0000
2000
0000
0000
,  // measure 42
0000
3000
0010
0010
,  // measure 43
0001
0001
0100
0100
,  // measure 44
2000
0000
0000
3000
,  // measure 45
0020
0000
0000
0030
,  // measure 46
0001
0000
0000
0000
,  // measure 47
1000
0000
0000
1001
;
