#VERSION:0.83;
#TITLE:onlymp3.to - Karma Super Smash Bros. Ultimate ost-rjGk22YQdv8-192k-1696866319;
#SUBTITLE:;
#ARTIST:Dancing Monkeys Project;
#TITLETRANSLIT:;
#SUBTITLETRANSLIT:;
#ARTISTTRANSLIT:;
#GENRE:;
#ORIGIN:;
#CREDIT:Gorilla v1.1.3 (Dancing Monkeys v1.06);
#BANNER:mqdefault.jpg;
#BACKGROUND:maxresdefault.jpg;
#PREVIEWVID:;
#JACKET:;
#CDIMAGE:;
#DISCIMAGE:;
#LYRICSPATH:;
#CDTITLE:;
#MUSIC:onlymp3.to - Karma Super Smash Bros. Ultimate ost-rjGk22YQdv8-192k-1696866319.mp3;
#OFFSET:-0.879813;
#SAMPLESTART:40.869396;
#SAMPLELENGTH:12.000000;
#SELECTABLE:YES;
#BPMS:0.000=150.039;
#STOPS:;
#DELAYS:;
#WARPS:;
#TIMESIGNATURES:0.000=4=4;
#TICKCOUNTS:0.000=4;
#COMBOS:0.000=1;
#SPEEDS:0.000=1.000=0.000=0;
#SCROLLS:0.000=1.000;
#FAKES:;
#LABELS:0.000=Song Start;
#BGCHANGES:;
#KEYSOUNDS:;
#ATTACKS:
;

//---------------dance-single - Basic----------------
#NOTEDATA:;
#CHARTNAME:Basic;
#STEPSTYPE:dance-single;
#DESCRIPTION:Basic;
#CHARTSTYLE:;
#DIFFICULTY:Easy;
#METER:6;
#RADARVALUES:0.319484,0.308099,0.057099,0.152265,0.000000,235.000000,229.000000,6.000000,16.000000,0.000000,1.000000,0.000000,0.000000,0.000000,0.319484,0.308099,0.057099,0.152265,0.000000,235.000000,229.000000,6.000000,16.000000,0.000000,1.000000,0.000000,0.000000,0.000000;
#CREDIT:Basic;
#NOTES:
// measure 0
1000
0001
0100
0010
,  // measure 1
1000
0100
0001
0100
,  // measure 2
1000
0000
0001
1000
,  // measure 3
0000
0001
0100
0010
,  // measure 4
0100
0001
0001
1000
,  // measure 5
1000
0010
0010
0000
,  // measure 6
1000
1000
0001
0000
,  // measure 7
0001
1000
0010
2002
,  // measure 8
0000
0000
3103
0010
,  // measure 9
0100
0010
1000
0001
,  // measure 10
1000
0001
1000
0001
,  // measure 11
1000
0001
1000
0001
,  // measure 12
1000
0001
0100
0010
,  // measure 13
0100
0010
0100
0001
,  // measure 14
1000
0001
1000
0001
,  // measure 15
1000
0001
1000
0001
,  // measure 16
1000
0001
1000
0001
,  // measure 17
0100
0010
0100
0010
,  // measure 18
1000
0001
1000
0001
,  // measure 19
1000
0001
1000
0001
,  // measure 20
1000
0010
0100
0010
,  // measure 21
0100
0001
1000
0001
,  // measure 22
1000
0001
1000
0001
,  // measure 23
1000
0001
1000
0001
,  // measure 24
0010
0100
0010
0100
,  // measure 25
0100
0010
0010
1000
,  // measure 26
0100
0010
0001
0010
,  // measure 27
0100
1000
0100
0010
,  // measure 28
0001
1000
0100
0010
,  // measure 29
0001
0010
0100
1000
,  // measure 30
0100
0010
0001
0010
,  // measure 31
0100
1000
0100
0010
,  // measure 32
0100
1000
0100
0010
,  // measure 33
0001
0010
0100
1000
,  // measure 34
0100
0010
0001
0010
,  // measure 35
0100
1000
0100
0010
,  // measure 36
0001
0010
0100
1000
,  // measure 37
0100
0010
0001
0010
,  // measure 38
0100
1000
0100
0010
,  // measure 39
0001
2002
0000
3003
,  // measure 40
2002
0000
0000
0000
0000
3003
0220
0000
,  // measure 41
0000
0330
1000
0001
,  // measure 42
1000
0001
1000
0001
,  // measure 43
1000
0001
1000
0001
,  // measure 44
1000
0001
0100
0010
,  // measure 45
0100
0010
0100
0001
,  // measure 46
1000
0001
1000
0001
,  // measure 47
1000
0001
1000
0001
,  // measure 48
1000
0001
0100
0010
,  // measure 49
0100
0010
0100
0010
,  // measure 50
1001
0100
0010
0100
,  // measure 51
0010
0100
0010
0100
,  // measure 52
0010
0100
0010
1000
,  // measure 53
0001
1000
0001
1000
,  // measure 54
0001
0100
0010
0100
,  // measure 55
0010
0100
0010
0100
,  // measure 56
0010
0000
0100
0000
0000
2002
0000
0000
,  // measure 57
0000
0000
0000
3003
0000
0000
2000
0000
,  // measure 58
0000
0000
3000
0001
0002
0000
0000
0000
,  // measure 59
0003
0000
0000
1000
2000
0000
0000
0000
,  // measure 60
3000
1000
0002
0000
,  // measure 61
0000
0003
0001
2000
,  // measure 62
0000
0000
3000
1000
,  // measure 63
0001
0002
0000
0000
,  // measure 64
0000
0003
1000
0001
;

//---------------dance-single - Standard----------------
#NOTEDATA:;
#CHARTNAME:Standard;
#STEPSTYPE:dance-single;
#DESCRIPTION:Standard;
#CHARTSTYLE:;
#DIFFICULTY:Medium;
#METER:7;
#RADARVALUES:0.422807,0.483441,0.009517,0.104682,0.000000,311.000000,310.000000,1.000000,11.000000,0.000000,0.000000,0.000000,0.000000,0.000000,0.422807,0.483441,0.009517,0.104682,0.000000,311.000000,310.000000,1.000000,11.000000,0.000000,0.000000,0.000000,0.000000,0.000000;
#CREDIT:Standard;
#NOTES:
0000
0000
0000
0000
0001
0000
0000
0000
,
0000
0000
0000
0000
0001
0000
0000
0000
,
0000
0000
0000
0000
0001
0000
0000
0000
,
0000
0000
1000
0010
0010
0100
0010
0000
,
1000
0000
1000
0000
0100
0000
0100
0000
,
0001
0000
0010
0000
0001
0000
0000
0000
,
1000
0000
1000
0000
0100
0000
0100
0000
,
1000
0000
0200
0000
0100
0000
0100
0000
,
0001
0000
0320
0000
0001
0000
0000
0000
,
0000
0000
0030
0000
1000
0100
0010
0100
,
0001
0100
0010
0000
0100
0000
0010
0100
,
0001
0010
0100
0000
0010
0100
1000
0100
,
1000
0100
0010
0000
0100
0010
0001
0010
,
0001
0100
0010
0000
0100
0000
0010
0100
,
1000
0010
1000
0100
0010
0001
0100
0000
,
0001
0010
0100
1000
0100
1000
0010
0100
,
1000
0000
0010
1000
0010
0000
0100
0001
,
0001
0000
0100
0001
0100
0000
0010
1000
,
0001
0010
0100
0000
0010
0100
1000
0100
,
0001
0000
0100
0000
0010
0001
0100
0010
,
0001
0010
0100
0000
0010
0100
1000
0100
,
0001
0000
0100
0000
0010
0001
0100
0010
,
1000
0000
0010
1000
0010
0000
0100
0001
,
0001
0010
0100
0000
0010
0100
1000
0100
,
1000
0100
0010
0001
0100
0000
0000
0000
,
0000
0000
0000
0000
1000
0010
0100
0000
,
1000
0000
0020
0000
0100
0000
0100
0000
,
1000
0000
1000
0000
0010
0000
0010
0000
,
0001
0000
0031
0000
0010
0000
2000
0000
,
1000
0000
1000
0000
0100
0000
0100
0000
,
0001
0000
0010
0000
0001
0000
3000
0000
,
1000
0000
0010
0000
1000
0000
0002
0000
,
1000
0000
1000
0000
0100
0000
0100
0000
,
1003
0000
1000
0000
0100
0000
2000
0000
,
0001
0000
0001
0000
0010
0000
3200
0000
,
0001
0000
0001
0000
0010
0000
0310
0000
,
1000
0000
0200
0000
0010
0000
0010
0000
,
2000
0000
3300
0000
0100
0000
0010
0010
,
1000
0000
1000
0000
0020
0000
0100
0000
,
1000
0000
1000
0000
0030
0000
0010
0000
,
1000
0100
0010
0001
0100
0000
0000
0000
,
2000
0000
3000
0000
0100
0000
0010
0010
,
1000
0010
1000
0100
0010
0001
0100
0000
,
0001
0010
0100
0000
0010
0100
1000
0100
,
0001
0000
0100
0000
0010
0001
0100
0010
,
0001
0010
0100
0000
0010
0100
1000
0100
,
1000
0010
0100
0010
1000
0100
1000
1000
,
0001
0010
0100
0000
0010
0100
1000
0100
,
0001
0100
0010
0000
0100
0010
1000
0010
,
0001
0100
0010
0000
0100
0000
0010
0100
,
0001
0010
0100
0000
0010
0100
1000
0100
,
1000
0010
0100
0000
0010
0100
0001
0100
,
0001
0000
0100
0000
0010
0001
0100
0010
,
0001
0010
0100
0000
0010
0100
1000
0100
,
0001
0100
0010
0000
0100
0000
0010
0100
,
1000
0001
0100
0010
0100
0000
0010
0100
,
1000
0100
2000
0000
0100
0000
0000
0000
,
0001
0000
0010
0000
3001
0000
0000
0000
,
0001
0000
0001
0000
1100
0000
0001
1000
,
0000
0000
0000
0000
0020
0000
0100
0000
,
0001
0000
0001
0000
0030
1000
0001
1000
,
0000
0000
0000
0000
2000
0000
0100
0000
,
0000
0000
0000
0000
3000
1000
0100
1000
,
0000
0000
0000
0000
0001
0000
0000
0000
,
;

//---------------dance-single - Heavy----------------
#NOTEDATA:;
#CHARTNAME:Heavy;
#STEPSTYPE:dance-single;
#DESCRIPTION:Heavy;
#CHARTSTYLE:;
#DIFFICULTY:Hard;
#METER:8;
#RADARVALUES:0.475828,0.513656,0.009517,0.066616,0.000000,350.000000,349.000000,1.000000,7.000000,0.000000,0.000000,0.000000,0.000000,0.000000,0.475828,0.513656,0.009517,0.066616,0.000000,350.000000,349.000000,1.000000,7.000000,0.000000,0.000000,0.000000,0.000000,0.000000;
#CREDIT:Heavy;
#NOTES:
0001
0000
0000
0000
1000
0000
0000
0000
,
1000
0000
0000
0000
0001
0000
0000
0000
,
1000
0000
0000
0000
0001
0000
0000
0000
,
0000
0000
1000
0010
0010
0100
0010
0010
,
0001
0000
0001
0000
0100
0000
0100
0001
,
0001
0001
1000
0000
0100
0000
0000
0000
,
0001
0000
0001
0000
0100
0000
0100
0001
,
1000
0000
0002
0000
0010
0000
0010
0000
,
0001
0000
0002
0000
0100
0000
0000
0000
,
0000
0000
0003
0001
0100
0010
1000
0100
,
1000
0001
0100
0001
1000
0000
0010
0100
,
1000
0010
0100
0010
1000
0001
0010
0100
,
0001
0010
0100
0010
0001
1000
0010
0100
,
1000
0001
0100
0001
1000
0000
0010
0100
,
1000
0001
1000
0001
1000
0010
0100
0010
,
1000
0001
0010
0000
0100
0010
0100
0000
,
0001
1000
0010
1000
0001
0100
0010
0100
,
0001
1000
0100
1000
0001
0010
0100
0010
,
1000
0010
0100
0010
1000
0001
0010
0100
,
0001
0010
0001
0000
0010
0100
0010
0100
,
1000
0010
0100
0010
1000
0001
0010
0100
,
0001
0010
0001
0000
0010
0100
0010
0100
,
0001
1000
0010
1000
0001
0100
0010
0100
,
1000
0010
0100
0010
1000
0001
0010
0100
,
1000
0001
0010
0001
1000
0000
0000
0001
,
0000
0000
0000
0000
0001
0010
0100
0100
,
0001
0000
0002
0000
0100
0000
0100
0000
,
1000
0000
1000
0000
0100
0000
0100
0000
,
0001
0000
0003
0000
0100
0000
0200
0000
,
1000
0000
1000
0000
0010
0000
0010
0000
,
0001
0000
1000
0000
0100
0000
0300
0000
,
0001
0001
1000
0000
0100
0000
0200
0000
,
0001
0000
0001
0000
0100
0000
0100
0000
,
0301
0000
0001
0000
0100
0000
2000
0000
,
0001
0000
0001
0000
0100
0000
2000
0000
,
0001
0000
0001
0000
0100
0000
3100
0001
,
1000
0000
0200
0000
0010
0000
0010
0000
,
2000
0000
3300
0001
1000
0000
0010
0010
,
0001
0000
0001
0000
2000
0000
0100
0000
,
0001
0000
0001
0000
3100
0000
0100
0001
,
1000
0001
0010
0001
1000
0000
0000
0001
,
2000
0000
3000
0001
1000
0000
0010
0010
,
1000
0001
1000
0001
1000
0010
0100
0010
,
1000
0010
0100
0010
1000
0001
0010
0100
,
0001
0010
0001
0000
0010
0100
0010
0100
,
1000
0010
0100
0010
1000
0001
0010
0100
,
1000
0000
0001
0000
0010
0001
0010
0010
,
1000
0010
0100
0010
1000
0001
0010
0100
,
1000
0100
0010
0100
1000
0001
0100
0010
,
1000
0001
0100
0001
1000
0000
0010
0100
,
1000
0010
0100
0010
1000
0001
0010
0100
,
0001
0100
0010
0100
0001
1000
0100
0010
,
0001
0010
0001
0000
0010
0100
0010
0100
,
1000
0010
0100
0010
1000
0001
0010
0100
,
1000
0001
0100
0001
1000
0000
0010
0100
,
1000
0010
1000
0000
0010
0000
0100
0001
,
1000
0001
2000
0000
1000
0000
0000
0000
,
0001
0000
1000
0000
3100
0000
0000
0000
,
1000
0100
0100
0000
0101
0000
0001
0010
,
0000
0000
0000
0000
0200
0000
0100
0000
,
1000
0000
0100
0000
0300
1000
0001
0010
,
0001
0000
0000
0000
2000
0000
0100
0000
,
0001
0000
0000
0000
3000
0001
0100
0001
,
0001
0000
0000
0000
1000
0000
0000
0000
,
;
