#VERSION:0.83;
#TITLE:Island Paradise (Final Round);
#SUBTITLE:;
#ARTIST:Tekken;
#TITLETRANSLIT:;
#SUBTITLETRANSLIT:;
#ARTISTTRANSLIT:;
#GENRE:;
#ORIGIN:;
#CREDIT:Gorilla v1.1.3 (Dancing Monkeys v1.06);
#BANNER:;
#BACKGROUND:;
#PREVIEWVID:;
#JACKET:;
#CDIMAGE:;
#DISCIMAGE:;
#LYRICSPATH:;
#CDTITLE:;
#MUSIC:Island Paradise (Final Round)(Bonus Track #27).mp3;
#OFFSET:-0.227166;
#SAMPLESTART:41.882492;
#SAMPLELENGTH:12.000000;
#SELECTABLE:YES;
#BPMS:0.000=144.039;
#STOPS:;
#DELAYS:;
#WARPS:;
#TIMESIGNATURES:0.000=4=4;
#TICKCOUNTS:0.000=4;
#COMBOS:0.000=1;
#SPEEDS:0.000=1.000=0.000=0;
#SCROLLS:0.000=1.000;
#FAKES:;
#LABELS:0.000=Song Start;
#BGCHANGES:;
#KEYSOUNDS:;
#ATTACKS:
;

//---------------dance-single - Basic----------------
#NOTEDATA:;
#CHARTNAME:Basic;
#STEPSTYPE:dance-single;
#DESCRIPTION:Basic;
#CHARTSTYLE:;
#DIFFICULTY:Easy;
#METER:3;
#RADARVALUES:0.152243,0.166806,0.000000,0.026477,0.000000,161.000000,161.000000,0.000000,4.000000,0.000000,0.000000,0.000000,0.000000,0.000000,0.152243,0.166806,0.000000,0.026477,0.000000,161.000000,161.000000,0.000000,4.000000,0.000000,0.000000,0.000000,0.000000,0.000000;
#CREDIT:Basic;
#NOTES:
// measure 0
1000
0000
0000
0000
,  // measure 1
0000
2000
0000
0000
,  // measure 2
0000
3000
0000
0100
,  // measure 3
1000
0001
0100
0010
,  // measure 4
0001
1000
0100
0010
,  // measure 5
1000
0001
0010
0100
,  // measure 6
1000
0001
0100
0000
,  // measure 7
1000
0000
0100
0010
,  // measure 8
0001
1000
0100
0010
,  // measure 9
1000
0001
0100
0010
,  // measure 10
0001
0000
0000
0000
,  // measure 11
1000
0001
0100
0010
,  // measure 12
1000
0001
0010
0100
,  // measure 13
1000
0001
0010
0100
,  // measure 14
1000
0001
0100
0000
,  // measure 15
1000
0001
0100
0010
,  // measure 16
1000
0001
0010
0100
,  // measure 17
1000
0001
0100
0010
,  // measure 18
0000
0000
0000
0000
,  // measure 19
1000
0000
0000
0100
,  // measure 20
0000
0000
0001
0000
,  // measure 21
0000
1000
0000
0000
,  // measure 22
0010
0000
0000
0001
,  // measure 23
0001
0000
0000
1000
,  // measure 24
1000
0000
0000
0002
,  // measure 25
0000
0000
0000
0000
,  // measure 26
0000
0003
0000
0001
,  // measure 27
0001
0001
0001
0000
,  // measure 28
1000
1000
1000
1000
,  // measure 29
0001
0001
0001
0001
,  // measure 30
1000
1000
1000
1000
,  // measure 31
0001
0001
0001
0001
,  // measure 32
1000
1000
1000
1000
,  // measure 33
0001
0001
0001
0001
,  // measure 34
1000
1000
1000
2000
,  // measure 35
0000
0000
0000
0000
,  // measure 36
3000
0000
0000
0000
,  // measure 37
1000
0000
0000
0000
,  // measure 38
0001
0000
0000
0000
,  // measure 39
1000
1000
1000
1000
,  // measure 40
0001
0010
0001
0010
,  // measure 41
0001
1000
0100
1000
,  // measure 42
0100
1000
0010
0001
,  // measure 43
0010
0001
1000
0100
,  // measure 44
1000
0100
1000
0010
,  // measure 45
0100
0010
1000
0100
,  // measure 46
0001
0010
0001
0010
,  // measure 47
0010
0000
0000
0000
,  // measure 48
0001
0000
0001
0010
,  // measure 49
0010
0010
1000
1000
,  // measure 50
1000
0001
0001
0001
,  // measure 51
1000
1000
1000
0001
,  // measure 52
0000
0010
0010
0010
,  // measure 53
1000
1000
1000
0000
,  // measure 54
0001
0010
0001
0010
,  // measure 55
2000
0000
0000
3000
,  // measure 56
1000
0000
0000
0000
;
