#TITLE:onlymp3.to - Sean Paul Tek Weh Yuh Heart Audio ft. Tory Lanez-lyH5Jji6ou4-192k-1697472094;
#SUBTITLE:;
#ARTIST:Dancing Monkeys Project;
#TITLETRANSLIT:;
#SUBTITLETRANSLIT:;
#ARTISTTRANSLIT:;
#GENRE:;
#CREDIT:Gorilla v1.1.3 (Dancing Monkeys v1.06);
#BANNER:;
#BACKGROUND:;
#LYRICSPATH:;
#CDTITLE:;
#MUSIC:onlymp3.to - Sean Paul Tek Weh Yuh Heart Audio ft. Tory Lanez-lyH5Jji6ou4-192k-1697472094.mp3;
#OFFSET:-0.486021;
#SAMPLESTART:32.065186;
#SAMPLELENGTH:12.000000;
#SELECTABLE:YES;
#BPMS:0.000000=189.998993
;
#STOPS:671.000000=1.263000
;
#BGCHANGES:;
#KEYSOUNDS:;
#ATTACKS:;

//---------------dance-single - Basic----------------
#NOTES:
     dance-single:
     Basic:
     Easy:
     5:
     0.313933,0.450934,0.017580,0.070321,0.000000,500.000000,496.000000,4.000000,16.000000,0.000000,0.000000,0.313933,0.450934,0.017580,0.070321,0.000000,500.000000,496.000000,4.000000,16.000000,0.000000,0.000000:
1000
0000
0000
0000
,
1000
0000
0000
0000
,
1000
0000
0000
0000
,
1000
0000
0000
0000
,
0001
0000
0000
0000
0000
0000
0000
1000
,
1000
0000
0000
0000
,
0001
0000
0000
0000
,
1000
0000
0000
0000
,
1000
0001
0000
0010
,
1000
0000
0000
0001
,
0000
1000
0001
0000
,
1000
0001
0000
0010
,
1000
0001
0000
0100
,
1000
0000
0000
0001
,
0001
0000
0000
0020
,
0000
0000
0000
1000
,
0030
0000
1000
0100
0010
0000
0200
0000
,
0000
0000
0000
0001
,
0300
0000
1000
0100
0010
0000
0001
0000
,
1000
0000
0010
0000
0000
0000
1000
0010
,
1000
0200
0000
0001
,
0000
0000
0000
0001
,
0300
0000
1000
0100
0010
0000
0000
0000
,
0000
0010
0000
0000
,
0100
0000
0010
0200
,
0000
0010
0000
0000
,
0300
0000
1000
0100
0010
0000
2000
0000
,
0000
0010
0000
3100
,
1000
0100
0001
0000
0100
0000
0000
0000
,
0000
0000
0000
0001
,
0000
0010
0010
0200
,
0000
0001
0000
0310
,
1000
0000
0000
0001
,
1000
0000
0000
0001
,
1000
0000
0000
0001
,
0001
0000
0000
1000
,
1000
0000
0000
0001
,
1000
0100
0010
0000
0000
0000
0000
0000
,
1000
0000
0000
0001
,
1000
0100
0010
0000
0000
0000
0000
0000
,
1001
0000
0000
0001
0000
0000
0100
0001
,
0001
0001
0000
0000
,
1000
0000
0000
0001
,
0001
0000
0000
1000
,
1001
0000
0000
0001
0000
0000
0100
0001
,
1000
0000
0000
0000
,
1000
0000
0000
0000
,
0000
1000
0001
0000
,
0010
0000
0001
1000
0010
0000
1000
0100
,
1000
0010
0010
1000
,
0010
0000
0001
1000
0010
0000
1000
0100
,
1000
0010
0010
1000
,
0010
0000
0001
1000
0010
0000
1000
0100
,
1000
0010
0010
1000
,
0010
0000
0001
1000
0010
0000
1000
0100
,
1000
0010
0010
1000
,
0010
0000
0001
1000
0010
0000
1000
0100
,
1000
0010
0010
1000
,
0001
0000
0001
1000
0010
0000
1000
0100
,
1000
0010
0010
1000
,
0001
0000
0001
1000
0010
0000
1000
0100
,
1000
0010
0010
1000
,
0001
0000
0010
0100
0010
1000
0001
0000
,
1000
0010
0010
1000
,
1000
0100
0001
0000
0100
0000
0010
0000
,
0001
0010
0010
0100
,
1000
0010
0010
0000
,
0000
0010
0000
0100
,
0000
0000
1000
0100
0010
0000
0001
0000
,
1000
0100
0010
0000
0000
0000
0000
0000
,
1000
0010
0010
1000
,
1000
0100
0010
0000
0000
0000
0000
0000
,
0020
1000
0000
0001
,
0000
0000
0000
0001
,
0030
0000
1000
0100
0010
0000
0001
0000
,
0001
0010
0010
0100
,
1000
0000
1000
0100
0010
0000
0020
0000
,
0000
0000
0000
0031
,
1000
0000
1000
0100
0010
0000
2000
0000
,
0000
0010
0000
3000
,
1000
0000
0000
0001
,
0001
0000
0000
1000
,
0001
0000
0000
1000
,
1000
0100
0010
0000
0000
0000
0000
0000
,
1000
0000
0000
0001
,
1000
0100
0010
0000
0000
0000
0000
0000
,
1000
0000
0000
0001
,
1000
0100
0010
0000
0000
0000
0000
0000
,
1001
0000
0000
0001
0000
0000
0100
0001
,
0001
0001
0000
0000
,
1000
0000
0000
0001
,
1000
0000
0000
0001
,
1001
0000
0000
0001
0000
0000
0100
0001
,
1000
0000
0000
0000
,
0001
0000
0000
0000
,
0000
1000
0001
0000
,
0010
0000
0001
1000
0010
0000
1000
0100
,
1000
0010
0010
1000
,
0010
0000
0001
1000
0010
0000
1000
0100
,
1000
0010
0010
1000
,
1000
0000
0001
1000
0010
0000
1000
0100
,
1000
0010
0010
1000
,
0010
0000
0001
1000
0010
0000
1000
0100
,
1000
0010
0010
1000
,
0001
0002
0000
1000
,
0000
0010
0003
1000
,
0010
0000
0001
1000
0010
0000
1000
0100
,
1000
0010
0010
1000
,
0010
0000
0001
1000
0010
0000
1000
0100
,
1000
0010
0010
1000
,
0010
0000
0010
0100
0010
1000
0001
0000
,
1000
0000
0000
0001
,
1000
0010
0010
1000
,
1000
0000
0000
0001
,
1000
0000
0000
0001
,
0000
1000
0001
0000
,
1000
0001
0000
0010
,
1000
0000
0000
0001
,
1000
0000
0000
0001
,
0000
1000
0001
0000
,
1000
0010
0010
0000
,
0000
0000
0000
0001
,
0000
1000
0010
0020
,
0000
0000
0000
0001
,
0230
0010
0000
1000
,
0000
0000
0000
0001
,
0300
0200
0000
0001
,
0000
0000
0000
0001
,
0300
0010
0010
2000
,
0000
0000
0000
0001
,
3020
1000
0000
0001
,
0000
0000
0000
0001
,
0030
0010
0010
2000
,
0000
0000
0000
0001
,
3000
0010
0010
0000
,
0000
0000
0000
0001
,
0000
0000
0000
0000
,
0001
0000
0000
0000
,
1000
0000
0000
0001
,
0001
0000
0000
1000
,
1000
0000
0000
0001
,
0001
0001
0000
0000
,
1000
0000
0000
0000
,
0000
1000
0001
0000
,
0001
0001
0000
0000
,
1000
0000
0000
0000
,
1000
0000
0000
0001
,
1000
0000
0000
0001
,
1000
0100
0010
0000
0000
0000
0000
0000
,
0001
0001
0000
0000
,
1000
0100
0010
0000
0000
0000
0000
0000
,
0000
1000
0001
0000
,
0010
0000
0001
1000
0010
0000
0000
0000
,
0000
0010
0000
1000
,
0000
0001
0001
1000
0010
0000
1000
0100
,
1000
0010
0010
1000
,
0001
0000
0001
1000
0010
0000
1000
0000
,
1000
0010
0010
1000
,
0001
0000
0001
1000
0010
0000
1000
0000
,
1000
0010
0010
1000
,
0001
0000
0001
1000
0010
0000
1000
0100
,
1000
0010
0010
1000
,
0001
0001
0010
1000
,
1000
0010
0010
1000
,
0010
0001
0010
1000
,
1000
0010
0010
1000
,
0001
0001
0010
1000
,
1000
0010
0010
1000
,
0001
0000
0000
0000
,
1000
0000
0000
0000
,
0001
0000
0000
0000
,
1000
0000
0000
0000
;
