#VERSION:0.83;
#TITLE:Teenage Mutant Ninja Turtles 2003 Theme Song;
#SUBTITLE:;
#ARTIST:4Kids Entertainment;
#TITLETRANSLIT:;
#SUBTITLETRANSLIT:;
#ARTISTTRANSLIT:;
#GENRE:;
#ORIGIN:;
#CREDIT:Gorilla v1.1.3 (Dancing Monkeys v1.06);
#BANNER:;
#BACKGROUND:;
#PREVIEWVID:;
#JACKET:;
#CDIMAGE:;
#DISCIMAGE:;
#LYRICSPATH:;
#CDTITLE:;
#MUSIC:Teenage Mutant Ninja Turtles Theme Song (From TMNT 2003).mp3;
#OFFSET:-0.434000;
#SAMPLESTART:42.586502;
#SAMPLELENGTH:12.000000;
#SELECTABLE:YES;
#BPMS:0.000=148.036;
#STOPS:;
#DELAYS:;
#WARPS:;
#TIMESIGNATURES:0.000=4=4;
#TICKCOUNTS:0.000=4;
#COMBOS:0.000=1;
#SPEEDS:0.000=1.000=0.000=0;
#SCROLLS:0.000=1.000;
#FAKES:;
#LABELS:0.000=Song Start;
#BGCHANGES:;
#KEYSOUNDS:;
#ATTACKS:
;

//---------------dance-single - Basic----------------
#NOTEDATA:;
#CHARTNAME:Basic;
#STEPSTYPE:dance-single;
#DESCRIPTION:Basic;
#CHARTSTYLE:;
#DIFFICULTY:Easy;
#METER:3;
#RADARVALUES:0.188697,0.223773,0.000000,0.108778,0.000000,85.000000,85.000000,0.000000,7.000000,0.000000,0.000000,0.000000,0.000000,0.000000,0.188697,0.223773,0.000000,0.108778,0.000000,85.000000,85.000000,0.000000,7.000000,0.000000,0.000000,0.000000,0.000000,0.000000;
#CREDIT:Basic;
#NOTES:
// measure 0
0000
1000
1000
0100
,  // measure 1
0001
0000
0000
0000
,  // measure 2
0002
0000
0003
0000
,  // measure 3
0000
1000
0010
0001
,  // measure 4
0000
0000
0001
0100
,  // measure 5
0000
0001
1000
0100
,  // measure 6
0000
1000
0010
0001
,  // measure 7
0000
1000
0001
0010
,  // measure 8
0002
0000
0000
0003
,  // measure 9
1000
0000
0100
0000
,  // measure 10
0000
0100
0000
0000
0000
0000
0000
0000
,  // measure 11
1000
0000
1000
0100
,  // measure 12
0001
1000
0010
1000
,  // measure 13
0000
0001
0000
0000
1000
0000
0100
0000
,  // measure 14
0000
0100
0010
0001
,  // measure 15
0000
1000
0000
0000
1000
0000
0100
0000
,  // measure 16
1000
0100
0010
0001
,  // measure 17
0000
0001
0000
0000
0010
0000
0000
0000
,  // measure 18
0002
0000
0003
0000
,  // measure 19
0001
0000
0010
0000
,  // measure 20
0000
0000
0001
0000
,  // measure 21
0000
0001
0000
0000
,  // measure 22
0002
0003
2000
0000
,  // measure 23
3000
0000
1000
0001
,  // measure 24
0000
0000
0001
1000
,  // measure 25
0000
1000
1000
0100
,  // measure 26
2000
0000
3000
0000
,  // measure 27
0000
1000
0001
0100
,  // measure 28
0000
1000
0001
0010
,  // measure 29
1000
0000
0001
0010
,  // measure 30
0000
0010
0000
0010
,  // measure 31
0000
1000
0010
0001
,  // measure 32
0000
1000
0001
0100
,  // measure 33
0000
1000
1000
0100
,  // measure 34
0001
1000
0001
0000
,  // measure 35
2000
0000
3000
0000
,  // measure 36
1000
0000
0000
0000
;
