#VERSION:0.83;
#TITLE:Teen Titans Intro Theme Song;
#SUBTITLE:;
#ARTIST:Sampletext;
#TITLETRANSLIT:;
#SUBTITLETRANSLIT:;
#ARTISTTRANSLIT:;
#GENRE:;
#ORIGIN:;
#CREDIT:;
#BANNER:Theme_Song-bn.jpg;
#BACKGROUND:Theme_Song_(41).jpg;
#PREVIEWVID:;
#JACKET:;
#CDIMAGE:;
#DISCIMAGE:;
#LYRICSPATH:;
#CDTITLE:;
#MUSIC:Teen Titans Intro Theme Song.ogg;
#OFFSET:-0.085000;
#SAMPLESTART:5.000000;
#SAMPLELENGTH:15.000000;
#SELECTABLE:YES;
#BPMS:0.000=165.000,
72.000=41.250,
72.250=82.500,
72.500=165.000,
73.250=330.000,
73.500=660.000,
76.000=164.740;
#STOPS:;
#DELAYS:;
#WARPS:72.000=0.021;
#TIMESIGNATURES:0.000=4=4;
#TICKCOUNTS:0.000=4;
#COMBOS:0.000=1;
#SPEEDS:0.000=1.000=0.000=0;
#SCROLLS:0.000=1.000;
#FAKES:;
#LABELS:0.000=Song Start;
#BGCHANGES:;
#KEYSOUNDS:;
#ATTACKS:
;

//---------------dance-single - Silver----------------
#NOTEDATA:;
#CHARTNAME:Silver;
#STEPSTYPE:dance-single;
#DESCRIPTION:Silver;
#CHARTSTYLE:;
#DIFFICULTY:Easy;
#METER:2;
#RADARVALUES:0.220102,0.290449,0.000000,0.115553,0.000000,120.000000,120.000000,0.000000,9.000000,0.000000,0.000000,0.000000,0.000000,0.000000,0.220102,0.290449,0.000000,0.115553,0.000000,120.000000,120.000000,0.000000,9.000000,0.000000,0.000000,0.000000,0.000000,0.000000;
#CREDIT:Silver;
#NOTES:
// measure 0
0000
0000
0000
0000
,  // measure 1
2000
0000
3020
0030
,  // measure 2
0200
0300
0002
0003
,  // measure 3
1000
0100
0100
0010
,  // measure 4
0010
0001
0001
1000
,  // measure 5
1000
0010
0010
0100
,  // measure 6
0100
0100
0100
0001
,  // measure 7
0001
1000
1000
0010
,  // measure 8
0010
0100
0100
0001
,  // measure 9
0001
1000
1000
0001
,  // measure 10
0001
0001
0001
0100
,  // measure 11
0100
0010
0010
1000
,  // measure 12
1000
0100
0100
1000
,  // measure 13
1000
0010
0010
0100
,  // measure 14
0100
0001
0001
0010
,  // measure 15
0010
0001
0001
0100
,  // measure 16
0100
0010
0010
0001
,  // measure 17
1000
0001
1000
0001
,  // measure 18
0000
0000
0000
0000
,  // measure 19
0000
0001
0000
0100
,  // measure 20
0000
0010
0000
1000
,  // measure 21
0000
0100
0000
0010
,  // measure 22
0000
0001
0000
0010
,  // measure 23
0000
0100
0000
1000
,  // measure 24
0000
0100
0000
0010
,  // measure 25
0000
0001
0000
0100
,  // measure 26
0000
0001
0000
1000
,  // measure 27
0000
0020
0000
0000
,  // measure 28
0030
2000
0000
0000
,  // measure 29
3000
0020
0000
0000
,  // measure 30
0030
2000
0000
0000
,  // measure 31
3000
1000
0000
0100
,  // measure 32
0000
0010
0000
0001
,  // measure 33
0000
0010
0000
0100
,  // measure 34
0000
1000
0000
0000
,  // measure 35
0000
0001
0000
0100
,  // measure 36
0000
0001
0000
1000
,  // measure 37
0000
0010
0000
1000
,  // measure 38
0000
0010
0000
0100
,  // measure 39
0000
0001
0000
0100
,  // measure 40
0000
0001
0000
1000
,  // measure 41
0000
0001
0000
0010
,  // measure 42
0000
0100
0000
1000
,  // measure 43
0000
0010
0000
0010
,  // measure 44
0000
0010
0000
0001
,  // measure 45
0000
0100
0000
0010
,  // measure 46
0000
1000
0000
0001
,  // measure 47
0000
0100
0000
0010
,  // measure 48
0000
1000
0000
0001
,  // measure 49
0000
2000
0000
0000
,  // measure 50
0000
0000
0000
0000
0000
0000
0000
0000
0000
0000
0000
0000
0000
3000
0000
0000
0000
0000
0000
0000
0000
0000
0000
0000
0000
0000
0000
0000
0000
0000
0000
0000
0000
0000
0000
0000
0000
0000
0000
0000
0000
0000
0000
0000
0000
0000
0000
0000
;

//---------------dance-single - Silver----------------
#NOTEDATA:;
#CHARTNAME:Silver;
#STEPSTYPE:dance-single;
#DESCRIPTION:Silver;
#CHARTSTYLE:;
#DIFFICULTY:Medium;
#METER:6;
#RADARVALUES:0.368671,0.460609,0.115553,0.064196,0.000000,201.000000,192.000000,9.000000,5.000000,0.000000,0.000000,0.000000,0.000000,2.000000,0.368671,0.460609,0.115553,0.064196,0.000000,201.000000,192.000000,9.000000,5.000000,0.000000,0.000000,0.000000,0.000000,2.000000;
#CREDIT:Silver;
#NOTES:
0000
0000
0000
0000
,
0000
0000
0000
0000
,
0000
0000
0000
0000
,
1000
0100
0010
0001
,
0010
0000
0100
0000
1000
0000
0100
0020
,
0000
0000
0000
0000
,
0030
0000
1000
0000
0010
1000
0000
0000
,
0001
0100
0010
1000
,
0100
0000
0010
0000
0001
0000
0100
0002
,
0000
0000
0000
0000
,
0003
0000
1000
0000
0010
1000
0000
0000
,
0000
0001
0100
0001
0100
0000
0010
0000
,
1000
0010
1000
0010
0000
0000
0100
0000
,
0001
0000
0100
0010
0100
0000
0001
0000
,
1000
0010
1000
0010
0000
0000
0100
0000
,
0001
0010
0100
1000
,
0100
0010
0001
1000
,
1001
0110
1001
0110
,
1001
0000
0000
0000
,
1001
0010
1000
0001
,
0100
0000
0010
0000
1000
0100
0000
0100
,
0010
0100
0010
0000
0010
0000
0001
0000
,
0001
0000
0100
0000
0010
0000
1000
0010
,
1000
0001
0100
0010
,
1000
0000
0100
0000
0010
0100
0000
0001
,
0100
0010
1000
0010
,
0100
0000
0001
0000
0010
0000
0100
1000
,
0000
0001
0100
0000
0010
0000
1000
0000
,
0010
0101
0000
0010
,
0000
1010
0000
0100
,
0000
0101
0000
0001
,
0000
0000
1000
0000
0001
1000
0000
0001
,
1000
0000
0010
0000
0100
0010
0000
0100
,
0010
0000
1000
0000
0001
1000
0000
0001
,
1000
0220
0000
0000
,
0330
1000
0010
0100
,
0001
0000
0100
0000
0010
1000
0000
1000
,
0010
0100
0001
0100
0001
0000
1000
0000
,
0010
0000
0100
0000
0001
0100
0000
0010
,
1000
0001
0100
0010
,
1000
0000
0100
0000
0010
0001
0000
0001
,
0010
0100
1000
0010
,
0100
0000
0001
0000
0010
0001
0000
1000
,
0010
0000
0100
0001
0100
0000
0010
0000
,
1000
0000
0100
0000
0010
0000
0001
0010
,
0001
0010
0001
0000
1000
0010
1000
0000
,
0001
0100
0001
0000
1000
0010
0000
0100
,
0001
0100
0001
0100
0001
0000
1000
0000
,
0010
0000
0100
0000
0001
0100
0000
0010
,
1000
0002
0000
0000
,
0000
0000
0000
0000
,
0000
0003
0000
0000
;

//---------------dance-single - Silver----------------
#NOTEDATA:;
#CHARTNAME:Silver;
#STEPSTYPE:dance-single;
#DESCRIPTION:Silver;
#CHARTSTYLE:;
#DIFFICULTY:Hard;
#METER:9;
#RADARVALUES:0.634627,0.589323,0.462214,0.282464,0.006420,346.000000,310.000000,36.000000,22.000000,0.000000,2.000000,0.000000,0.000000,2.000000,0.634627,0.589323,0.462214,0.282464,0.006420,346.000000,310.000000,36.000000,22.000000,0.000000,2.000000,0.000000,0.000000,2.000000;
#CREDIT:Silver;
#NOTES:
0000
0000
0000
0000
,
0000
0000
0000
0000
,
0000
0000
0000
0000
,
1000
1000
0100
0100
0010
0010
0001
0001
,
0100
0100
0010
0010
1000
1000
0100
0020
,
0000
0001
0130
0010
1000
0100
1000
0010
,
0100
0001
0010
0000
1010
1010
0000
0001
,
0100
0100
0010
0010
1000
1000
0001
0001
,
0100
0100
0010
0010
1000
1000
0100
0020
,
0000
0031
0100
0001
1000
0100
1000
0010
,
0100
0001
0010
0000
1100
1100
0000
0001
,
1000
0010
1000
0010
0200
0000
0302
0000
,
1003
0100
0010
0001
1000
0010
0100
0001
,
1000
0010
1000
0001
0100
0000
0101
0001
,
1000
0100
1000
0010
0100
0001
0010
0001
,
1000
0010
1000
0010
0200
0000
0302
0000
,
0023
0230
2300
3020
,
0130
0001
1000
0001
0100
0001
1000
0000
,
1001
1000
0100
0000
1000
0000
0000
0000
0100
0000
0000
0000
0000
0000
0000
0000
,
1001
1000
0001
0100
0010
1000
0001
0010
,
0100
1000
0001
0100
0001
1000
0010
0100
,
0010
1000
0100
0010
0100
0010
0001
0010
,
0001
0010
0002
0000
1003
0010
0100
0001
,
1000
0100
0010
0100
1000
0010
0100
0001
,
0100
0010
2000
0000
3001
0100
0001
0010
,
0100
0000
1000
0100
0010
0001
1000
0010
,
0100
0001
0020
0000
0031
0001
1000
0010
,
1000
0001
0200
0000
0310
0000
0000
0000
,
0110
0000
2002
0000
3003
0010
0000
1000
,
0100
1000
0010
0100
0001
0000
1000
0100
,
0010
0001
1000
0001
1000
0000
0010
0100
,
0001
0100
0001
0100
1000
0001
0010
1000
,
0001
0010
1000
0010
0001
1000
0010
0001
,
1000
0100
0001
0100
1000
0001
0010
1000
,
0100
1000
1010
0000
0010
0100
0001
0100
,
0000
0010
2200
0000
3311
0000
0101
0000
,
1010
0000
1001
0000
0101
0001
0100
0001
,
1000
0010
1000
0100
0010
0000
0011
0000
,
0101
0000
1001
0000
1010
0000
1000
0010
,
1000
0001
0100
0010
0100
0010
1000
0000
,
1100
0000
1001
0000
0001
0100
0000
0010
,
1000
0010
0100
0000
0101
0000
1001
0000
,
1010
1000
0010
0000
0100
0001
0100
0010
,
1000
0100
0010
0001
1000
0000
1010
0000
,
0101
0000
1001
0000
0110
0000
1000
0100
,
0010
0001
1001
0000
0101
0001
0100
0000
,
1010
0010
1000
0000
0002
0103
0010
1000
,
0010
0100
0001
1000
1100
0000
0110
0000
,
0110
0000
0022
0000
1033
0001
1000
0010
,
0000
0100
0001
1000
0010
1000
0001
0000
,
1001
2000
0000
0000
,
3000
0000
0000
0000
;
