#VERSION:0.83;
#TITLE:Goku vs SuperMan Theme;
#SUBTITLE:Super;
#ARTIST:Death Battle;
#TITLETRANSLIT:;
#SUBTITLETRANSLIT:;
#ARTISTTRANSLIT:;
#GENRE:;
#ORIGIN:;
#CREDIT:Brandon Yates;
#BANNER:maxresdefault.png;
#BACKGROUND:main-qimg-1d2cb83f3e398fefc4f361c2443046a4.png;
#PREVIEWVID:;
#JACKET:;
#CDIMAGE:;
#DISCIMAGE:;
#LYRICSPATH:;
#CDTITLE:;
#MUSIC:onlymp3.to - Death Battle Super From the Rooster Teeth Series -QbTLhc7zIq4-192k-1706589337.mp3;
#OFFSET:-0.185208;
#SAMPLESTART:37.460209;
#SAMPLELENGTH:12.000000;
#SELECTABLE:YES;
#BPMS:0.000=160.966;
#STOPS:;
#DELAYS:;
#WARPS:;
#TIMESIGNATURES:0.000=4=4;
#TICKCOUNTS:0.000=4;
#COMBOS:0.000=1;
#SPEEDS:0.000=1.000=0.000=0;
#SCROLLS:0.000=1.000;
#FAKES:;
#LABELS:0.000=Song Start;
#BGCHANGES:;
#KEYSOUNDS:;
#ATTACKS:
;

//---------------dance-single - Basic----------------
#NOTEDATA:;
#CHARTNAME:Basic;
#STEPSTYPE:dance-single;
#DESCRIPTION:Basic;
#CHARTSTYLE:;
#DIFFICULTY:Easy;
#METER:4;
#RADARVALUES:0.296331,0.291701,0.000000,0.067058,0.000000,464.000000,464.000000,0.000000,15.000000,0.000000,0.000000,0.000000,0.000000,0.000000,0.296331,0.291701,0.000000,0.067058,0.000000,464.000000,464.000000,0.000000,15.000000,0.000000,0.000000,0.000000,0.000000,0.000000;
#CREDIT:Basic;
#NOTES:
0002
0000
0000
0003
,
1000
0001
1000
2000
,
0000
3000
1000
0001
,
0001
1000
1000
0001
,
0001
0100
0010
0100
,
1000
0001
0100
0010
,
1000
0100
0001
0010
,
1000
0001
0100
0010
,
1000
0010
0001
0100
,
1000
0001
0100
0010
,
1000
0100
0001
0010
,
1000
0100
0001
0010
,
1000
0100
0001
0010
,
1000
0100
0001
0010
,
1000
0100
0001
0010
,
1000
0100
0001
0010
,
1000
0100
0001
0010
,
1000
0100
0001
0010
,
1000
0100
1000
0010
,
0001
0100
0001
0100
,
1000
1000
0001
0001
,
1000
1000
0001
0001
,
0100
0010
0100
0010
,
1000
0001
1000
0001
,
1000
0001
1000
0001
,
1000
0001
0100
0010
,
1000
1000
0001
0001
,
1000
0001
0010
0001
,
1000
0010
1000
0001
,
1000
0001
0010
1000
,
0001
1000
0100
0001
,
1000
0001
0100
0001
,
1000
0100
0001
0100
,
1000
0001
0100
2000
,
0000
0000
0000
0000
,
0000
0000
0000
3020
,
0000
0000
0000
0230
,
0000
0000
0000
0300
,
0001
0100
0010
1000
,
0010
1000
0001
1000
,
0001
1000
0001
1000
,
0001
1000
0100
0010
,
0001
1000
0001
0100
,
1000
0001
0100
0010
,
0001
1000
0100
0010
,
1000
0001
0100
0010
,
0001
0100
1000
0001
,
1000
0001
0100
0001
,
0001
1000
1000
0001
,
0001
1000
1000
0010
,
0010
0100
0100
0010
,
0010
1000
1000
0001
,
0001
1000
1000
0010
,
0010
0100
0100
0010
,
0010
0100
0010
0001
,
1000
0100
1000
0001
,
0100
0001
1000
0100
,
1000
0001
0010
0001
,
1000
0100
1000
0001
,
1000
0100
0001
0010
,
1000
0010
0001
0100
,
0001
0010
1000
0100
,
1000
0100
0010
0000
,
1000
0010
0001
0100
,
1000
0010
0001
0100
,
1000
0010
0001
0100
,
1000
0010
0001
0100
,
1000
0010
0001
0100
,
1000
0010
0001
0100
,
1000
0010
0001
0100
,
1000
0010
0001
0100
,
1000
0010
1000
0100
,
0001
0100
0001
0010
,
1000
0010
0100
0001
,
1000
0010
0100
2000
,
0000
0000
0000
0000
,
0000
0000
0000
0000
,
0000
0000
0000
0000
,
0000
0000
0000
3000
,
0010
0000
1000
0001
,
0000
0100
0000
0000
,
0010
0000
0100
0000
,
0010
1000
0000
0001
,
0000
1000
0000
0001
,
0000
0010
0000
0000
,
0100
0000
0001
0000
,
0010
0000
1000
0100
,
2000
0000
0000
3000
,
0000
0000
1000
0001
,
1000
0001
0010
0100
,
1000
0010
0001
1000
,
0010
0100
0001
0010
,
0001
0100
0010
0100
,
0001
0100
1000
0010
,
0001
0100
1000
0010
,
1000
0001
0100
0001
,
0100
0001
0001
0001
,
0001
1000
1000
1000
,
1000
0001
0001
0001
,
0001
1000
1000
1000
,
1000
0001
0001
0001
,
0001
1000
1000
1000
,
1000
0001
0001
0001
,
0001
0100
0010
1000
,
0001
1000
0001
0100
,
0010
1000
0001
0010
,
1000
0100
0010
1000
,
0010
0001
0100
1000
,
0010
0100
0001
0100
,
0001
1000
0010
1000
,
0001
1000
0001
0100
,
0001
0100
0010
0100
,
0010
2000
0000
0000
,
0000
0000
0000
0000
,
0000
0000
0000
0000
,
0000
0000
0000
0000
,
0000
0000
0000
0000
,
3000
2000
0000
0000
,
0000
3000
0002
0000
,
0000
0000
0003
2000
,
0000
0000
0000
0000
,
3002
0000
0000
0000
,
0000
0000
0000
0003
2000
0000
0000
0000
,
0000
0000
0000
0000
,
3000
0002
0000
0000
,
0000
0000
0000
0000
,
0000
0003
0100
0010
,
1000
0100
0001
0010
,
1000
0010
1000
0001
,
1000
0010
0100
1000
,
0001
0010
0100
1000
,
0001
1000
0010
0100
,
1000
0001
0010
0001
,
1000
0001
1000
0100
,
0010
1000
0100
0001
,
0010
0100
1000
0010
,
0001
0100
1000
0010
,
0100
0001
1000
0100
,
0010
0100
0001
0010
,
1000
0001
0010
0100
,
1000
0010
0001
0100
,
1000
0010
0001
0100
,
1000
0002
0000
0000
,
0000
0000
0000
0000
,
0000
0000
0000
0000
,
0003
0000
0000
0000
;

//---------------dance-single - Basic----------------
#NOTEDATA:;
#CHARTNAME:;
#STEPSTYPE:dance-single;
#DESCRIPTION:Basic;
#CHARTSTYLE:;
#DIFFICULTY:Beginner;
#METER:4;
#RADARVALUES:0.159661,0.221011,0.000000,0.062587,0.000000,250.000000,250.000000,0.000000,14.000000,0.000000,0.000000,0.000000,0.000000,0.000000,0.159661,0.221011,0.000000,0.062587,0.000000,250.000000,250.000000,0.000000,14.000000,0.000000,0.000000,0.000000,0.000000,0.000000;
#CREDIT:;
#NOTES:
// measure 0
0002
0000
0000
0003
,  // measure 1
0000
0001
0000
2000
,  // measure 2
0000
3000
0000
0001
,  // measure 3
0000
1000
0000
0001
,  // measure 4
0000
0010
0000
0100
,  // measure 5
0000
0001
0000
0010
,  // measure 6
0000
0100
0000
0010
,  // measure 7
0000
0001
0000
0100
,  // measure 8
0000
0010
0000
0100
,  // measure 9
0000
0001
0000
0010
,  // measure 10
0000
0100
0000
0010
,  // measure 11
0000
0100
0000
0010
,  // measure 12
0000
0100
0000
0010
,  // measure 13
0000
0100
0000
0010
,  // measure 14
0000
0100
0000
0010
,  // measure 15
0000
0100
0000
0010
,  // measure 16
0000
0100
0000
0010
,  // measure 17
0000
0100
0000
0010
,  // measure 18
0000
0100
0000
0010
,  // measure 19
0000
0001
0000
0100
,  // measure 20
0000
1000
0000
0001
,  // measure 21
0000
1000
0000
0001
,  // measure 22
0000
0010
0000
0100
,  // measure 23
0000
0010
0000
0001
,  // measure 24
0000
0010
0000
0001
,  // measure 25
0000
0100
0000
0010
,  // measure 26
0000
1000
0000
0010
,  // measure 27
0000
0001
0000
0100
,  // measure 28
0000
0010
0000
0001
,  // measure 29
0000
0001
0000
0010
,  // measure 30
0000
0100
0000
0010
,  // measure 31
0000
0100
0000
0001
,  // measure 32
0000
1000
0000
0100
,  // measure 33
0000
0001
0000
2000
,  // measure 34
0000
0000
0000
0000
,  // measure 35
0000
0000
3000
0020
,  // measure 36
0000
0000
0030
0200
,  // measure 37
0000
0000
0000
0300
,  // measure 38
0000
0100
0000
1000
,  // measure 39
0000
0010
0000
0001
,  // measure 40
0000
0100
0000
0010
,  // measure 41
0000
1000
0000
0010
,  // measure 42
0000
1000
0000
0100
,  // measure 43
0000
0001
0000
0010
,  // measure 44
0000
1000
0000
0010
,  // measure 45
0000
0001
0000
0010
,  // measure 46
0000
0100
0000
0010
,  // measure 47
0000
0001
0000
0100
,  // measure 48
0000
1000
0000
0010
,  // measure 49
0000
0100
0000
0010
,  // measure 50
0000
1000
0000
0010
,  // measure 51
0000
0100
0000
0001
,  // measure 52
0000
0010
0000
0100
,  // measure 53
0000
0001
0000
0010
,  // measure 54
0000
0100
0000
0001
,  // measure 55
0000
0100
0000
0001
,  // measure 56
0000
0100
0000
0010
,  // measure 57
0000
1000
0000
0001
,  // measure 58
0000
0100
0000
0001
,  // measure 59
0000
0100
0000
0001
,  // measure 60
0000
0010
0000
0100
,  // measure 61
0000
0010
0000
0001
,  // measure 62
0000
0100
0000
1000
,  // measure 63
0000
0010
0000
0100
,  // measure 64
0000
0010
0000
0100
,  // measure 65
0000
0010
0000
0100
,  // measure 66
0000
0010
0000
0100
,  // measure 67
0000
0010
0000
0100
,  // measure 68
0000
0010
0000
0100
,  // measure 69
0000
0010
0000
0100
,  // measure 70
0000
0010
0000
0100
,  // measure 71
0000
0010
0000
0100
,  // measure 72
0000
0100
0000
0001
,  // measure 73
0000
0010
0000
0001
,  // measure 74
0000
0010
0000
2000
,  // measure 75
0000
0000
0000
0000
,  // measure 76
0000
0000
0000
0000
,  // measure 77
0000
0000
0000
0000
,  // measure 78
0000
0000
0000
0000
,  // measure 79
3000
0000
1000
0000
,  // measure 80
0010
0000
0100
0000
,  // measure 81
0010
0000
0100
0000
,  // measure 82
0010
0000
1000
0000
,  // measure 83
0010
0000
0100
0000
,  // measure 84
0001
0000
0010
0000
,  // measure 85
0100
0000
0001
0000
,  // measure 86
0010
0000
0100
0000
,  // measure 87
2000
0000
0000
0000
,  // measure 88
3000
0000
0010
0000
,  // measure 89
1000
0000
0010
0000
,  // measure 90
1000
0000
0001
1000
,  // measure 91
0000
0100
0000
0010
,  // measure 92
0000
1000
0000
0001
,  // measure 93
0000
0100
0000
0010
,  // measure 94
0000
0100
0000
0010
,  // measure 95
0000
1000
0000
0010
,  // measure 96
0000
0001
0001
0001
,  // measure 97
0001
0000
1000
1000
,  // measure 98
1000
0000
0001
0001
,  // measure 99
0001
0000
1000
1000
,  // measure 100
1000
0000
0001
0001
,  // measure 101
0001
0000
1000
1000
,  // measure 102
1000
0000
0001
0001
,  // measure 103
0001
0000
0010
0000
,  // measure 104
0001
0000
0001
0000
,  // measure 105
0010
0000
0001
0000
,  // measure 106
1000
0000
0010
0000
,  // measure 107
0010
0000
0100
0000
,  // measure 108
0010
0000
0100
0000
,  // measure 109
1000
0000
0010
0000
,  // measure 110
0100
0000
1000
0000
,  // measure 111
0001
0000
0100
0000
,  // measure 112
2000
0000
0000
0000
,  // measure 113
0000
0000
0000
0000
,  // measure 114
0000
0000
0000
0000
,  // measure 115
0000
0000
0000
0000
,  // measure 116
0000
0000
0000
0000
,  // measure 117
3000
2000
0000
0000
,  // measure 118
0000
3000
0002
0000
,  // measure 119
0000
0000
0003
2000
,  // measure 120
0000
0000
0000
0000
,  // measure 121
3002
0000
0000
0000
,  // measure 122
0000
0000
0000
0003
2000
0000
0000
0000
,  // measure 123
0000
0000
0000
0000
,  // measure 124
3000
0002
0000
0000
,  // measure 125
0000
0000
0000
0000
,  // measure 126
0000
0003
0000
0010
,  // measure 127
0000
0100
0000
0010
,  // measure 128
0000
0010
0000
0001
,  // measure 129
0000
0010
0000
1000
,  // measure 130
0000
0010
0000
1000
,  // measure 131
0000
1000
0000
0100
,  // measure 132
0000
0001
0000
0001
,  // measure 133
0000
0001
0000
0100
,  // measure 134
0000
1000
0000
0001
,  // measure 135
0000
0100
0000
0010
,  // measure 136
0000
0100
0000
0010
,  // measure 137
0000
0001
0000
0100
,  // measure 138
0000
0100
0000
0010
,  // measure 139
0000
0001
0000
0100
,  // measure 140
0000
0010
0000
0100
,  // measure 141
0000
0010
0000
0000
;
