#TITLE:Suicide Squad ISEKAI;
#SUBTITLE:;
#ARTIST:Warner Bros. Japan;
#TITLETRANSLIT:;
#SUBTITLETRANSLIT:;
#ARTISTTRANSLIT:;
#GENRE:;
#CREDIT:Gorilla v1.1.3 (Dancing Monkeys v1.06);
#BANNER:;
#BACKGROUND:;
#LYRICSPATH:;
#CDTITLE:;
#MUSIC:Suicide Squad ISEKAI Non Credit ED Movie.mp3;
#OFFSET:-0.288662;
#SAMPLESTART:49.036602;
#SAMPLELENGTH:12.000000;
#SELECTABLE:YES;
#BPMS:0.000000=128.005417
;
#STOPS:3.000000=1.874921
;
#BGCHANGES:;
#KEYSOUNDS:;
#ATTACKS:;

//---------------dance-single - Basic----------------
#NOTES:
     dance-single:
     Basic:
     Easy:
     3:
     0.175734,0.221923,0.000000,0.088658,0.000000,111.000000,111.000000,0.000000,8.000000,0.000000,0.000000,0.175734,0.221923,0.000000,0.088658,0.000000,111.000000,111.000000,0.000000,8.000000,0.000000,0.000000:
// measure 0
0000
0000
0000
0000
,  // measure 1
0000
1000
0000
1000
,  // measure 2
0000
1000
0000
0100
,  // measure 3
0000
1000
0000
0000
,  // measure 4
0000
0000
0100
0000
,  // measure 5
0100
0000
0001
0000
,  // measure 6
1000
0000
0001
0000
,  // measure 7
1000
0000
0001
0000
,  // measure 8
0010
0000
1000
0000
,  // measure 9
0010
0000
0001
0000
,  // measure 10
0001
0000
2000
3000
,  // measure 11
0000
1000
0000
0000
,  // measure 12
0001
0001
1000
1000
,  // measure 13
1000
1000
0001
0001
,  // measure 14
1000
1000
0001
0001
,  // measure 15
0001
0001
1000
0100
,  // measure 16
2000
3000
0001
0010
,  // measure 17
0001
1000
1000
0100
,  // measure 18
0001
0000
1000
0000
,  // measure 19
0001
0000
0001
0001
,  // measure 20
0002
0000
0003
0000
,  // measure 21
1000
0000
0010
0000
,  // measure 22
0001
0000
1000
0000
,  // measure 23
0010
0000
1000
0000
,  // measure 24
0001
0000
1000
0000
,  // measure 25
0001
0000
0010
0000
,  // measure 26
0001
0000
0010
0000
,  // measure 27
1000
0000
0001
0000
,  // measure 28
1000
0000
0001
0010
,  // measure 29
1000
0000
2000
3000
,  // measure 30
0002
0000
0003
0000
,  // measure 31
1000
1000
0001
0100
,  // measure 32
1000
1000
1000
0001
,  // measure 33
0001
0002
0003
2000
,  // measure 34
0000
3000
0001
0001
,  // measure 35
0001
1000
1000
0100
,  // measure 36
0000
0000
1000
0000
,  // measure 37
0010
1000
1000
1000
,  // measure 38
0001
0001
0010
0010
,  // measure 39
0001
1000
0100
0001
,  // measure 40
0001
1000
1000
0100
,  // measure 41
0001
1000
1000
0100
,  // measure 42
1000
0000
0002
0000
,  // measure 43
0000
0003
0000
1000
,  // measure 44
1000
0000
1000
0000
;
