#VERSION:0.83;
#TITLE:Sugar;
#SUBTITLE:;
#ARTIST:Dancing Monkeys Project;
#TITLETRANSLIT:;
#SUBTITLETRANSLIT:;
#ARTISTTRANSLIT:;
#GENRE:;
#ORIGIN:;
#CREDIT:Gorilla v1.1.3 (Dancing Monkeys v1.06);
#BANNER:Sugar_(feat._Wynter)_-_Music_video.png;
#BACKGROUND:artworks-000180572619-oixo9h-t500x500.png;
#PREVIEWVID:;
#JACKET:;
#CDIMAGE:;
#DISCIMAGE:;
#LYRICSPATH:;
#CDTITLE:;
#MUSIC:onlymp3.to - flo_rida___sugar__feat._wynter___official_audio_-n6cv1gdvsLo-192k-1696850996.mp3;
#OFFSET:-0.953333;
#SAMPLESTART:47.107498;
#SAMPLELENGTH:12.000000;
#SELECTABLE:YES;
#BPMS:0.000=129.999;
#STOPS:;
#DELAYS:;
#WARPS:;
#TIMESIGNATURES:0.000=4=4;
#TICKCOUNTS:0.000=4;
#COMBOS:0.000=1;
#SPEEDS:0.000=1.000=0.000=0;
#SCROLLS:0.000=1.000;
#FAKES:;
#LABELS:0.000=Song Start;
#BGCHANGES:;
#KEYSOUNDS:;
#ATTACKS:
;

//---------------dance-single - Basic----------------
#NOTEDATA:;
#CHARTNAME:Basic;
#STEPSTYPE:dance-single;
#DESCRIPTION:Basic;
#CHARTSTYLE:;
#DIFFICULTY:Easy;
#METER:5;
#RADARVALUES:0.100502,0.105527,0.000000,0.003952,0.000000,178.000000,178.000000,0.000000,1.000000,0.000000,0.000000,0.000000,0.000000,0.000000,0.100502,0.105527,0.000000,0.003952,0.000000,178.000000,178.000000,0.000000,1.000000,0.000000,0.000000,0.000000,0.000000,0.000000;
#CREDIT:Basic;
#NOTES:
// measure 0
0000
1000
0000
0001
,  // measure 1
0000
1000
0000
0001
,  // measure 2
1000
0001
0000
0001
,  // measure 3
0000
1000
0000
0001
,  // measure 4
0000
1000
0000
0001
,  // measure 5
0000
1000
0000
0001
,  // measure 6
0000
1000
0000
0001
,  // measure 7
0001
1000
2000
0000
,  // measure 8
0000
0000
0000
0000
,  // measure 9
0000
3000
0000
0010
,  // measure 10
0000
0001
0000
0010
,  // measure 11
0000
0001
0000
1000
,  // measure 12
0000
0010
0000
0010
,  // measure 13
0000
0001
0000
0100
,  // measure 14
0000
0001
0000
0010
,  // measure 15
0000
0100
0000
0001
,  // measure 16
0000
0010
0000
0100
,  // measure 17
0000
0001
0000
0100
,  // measure 18
0000
0001
0000
0010
,  // measure 19
0000
0001
0000
0100
,  // measure 20
0000
0001
0000
0010
,  // measure 21
0000
0001
0000
0100
,  // measure 22
0000
0001
0000
0010
,  // measure 23
0000
0100
0000
0001
,  // measure 24
0000
1000
0000
0100
,  // measure 25
0000
0001
0000
0100
,  // measure 26
0000
0001
0000
0010
,  // measure 27
0000
0100
0000
0001
,  // measure 28
0000
0100
0000
0010
,  // measure 29
0000
0100
0000
0001
,  // measure 30
0000
0100
0000
0010
,  // measure 31
0000
0100
0000
0010
,  // measure 32
0000
0001
0000
0100
,  // measure 33
0000
0001
0000
1000
,  // measure 34
0000
0100
0000
0010
,  // measure 35
0000
0001
0000
0001
,  // measure 36
0000
0100
0000
0010
,  // measure 37
0000
0001
0000
0100
,  // measure 38
0000
0001
0000
0010
,  // measure 39
0000
1000
0000
0100
,  // measure 40
0000
0010
0000
0100
,  // measure 41
0000
0001
0000
1000
,  // measure 42
0000
0100
0000
0010
,  // measure 43
1000
0000
0010
0000
,  // measure 44
0001
0000
1000
0000
,  // measure 45
0010
0000
1000
0000
,  // measure 46
0010
0000
0001
0000
,  // measure 47
1000
0000
0010
0000
,  // measure 48
1000
0000
0001
0000
,  // measure 49
1000
0000
0100
0000
,  // measure 50
0001
0000
0100
0000
,  // measure 51
1000
0000
0100
0000
,  // measure 52
1000
0000
0001
0000
,  // measure 53
1000
0000
0100
0000
,  // measure 54
1000
0000
0001
0000
,  // measure 55
1000
0000
0010
0000
,  // measure 56
1000
0000
0100
0000
,  // measure 57
1000
0000
0100
0000
,  // measure 58
1000
0000
0001
0000
,  // measure 59
1000
0000
0100
0000
,  // measure 60
1000
0000
0001
0000
,  // measure 61
1000
0000
0100
0000
,  // measure 62
0001
0000
0100
0000
,  // measure 63
0010
0000
1000
0000
,  // measure 64
0100
0000
1000
0000
,  // measure 65
0010
0000
0100
0000
,  // measure 66
1000
0000
0001
0000
,  // measure 67
0100
0000
0010
0000
,  // measure 68
1000
0000
0010
0000
,  // measure 69
0001
0000
0100
0000
,  // measure 70
1000
0000
0100
0000
,  // measure 71
1000
0000
0100
0000
,  // measure 72
0010
0000
0100
0000
,  // measure 73
0001
0000
0100
0000
,  // measure 74
0010
0000
0001
0000
,  // measure 75
1000
0000
0100
0000
,  // measure 76
0010
0000
0100
0000
,  // measure 77
1000
0000
0010
0000
,  // measure 78
0100
0000
0001
0000
,  // measure 79
0100
0000
1000
0000
,  // measure 80
0010
0000
0100
0000
,  // measure 81
1000
0000
0010
0000
,  // measure 82
0100
0000
0010
0000
,  // measure 83
0001
0000
0100
0000
,  // measure 84
1000
0000
0001
0000
,  // measure 85
1000
0000
0100
0000
,  // measure 86
1000
0000
0001
0000
,  // measure 87
1000
0000
0010
0000
,  // measure 88
1000
0000
0001
0000
,  // measure 89
0010
0000
0000
0000
;
