#VERSION:0.83;
#TITLE:Stronger Than You (Jersey Club) @fazobeats;
#SUBTITLE:;
#ARTIST:Dancing Monkeys Project;
#TITLETRANSLIT:;
#SUBTITLETRANSLIT:;
#ARTISTTRANSLIT:;
#GENRE:;
#ORIGIN:;
#CREDIT:Gorilla v1.1.3 (Dancing Monkeys v1.06);
#BANNER:Steven_Universe_-_Title_Card.png;
#BACKGROUND:stronger_than_you___steven_universe_by_ono_fire_d8p5l1n-fullview.jpg;
#PREVIEWVID:;
#JACKET:;
#CDIMAGE:;
#DISCIMAGE:;
#LYRICSPATH:;
#CDTITLE:;
#MUSIC:Stronger Than You (Jersey Club) @fazobeats.mp3;
#OFFSET:-0.105283;
#SAMPLESTART:46.257214;
#SAMPLELENGTH:12.000000;
#SELECTABLE:YES;
#BPMS:0.000=130.005;
#STOPS:;
#DELAYS:;
#WARPS:;
#TIMESIGNATURES:0.000=4=4;
#TICKCOUNTS:0.000=4;
#COMBOS:0.000=1;
#SPEEDS:0.000=1.000=0.000=0;
#SCROLLS:0.000=1.000;
#FAKES:;
#LABELS:0.000=Song Start;
#BGCHANGES:;
#KEYSOUNDS:;
#ATTACKS:
;

//---------------dance-single - Basic----------------
#NOTEDATA:;
#CHARTNAME:;
#STEPSTYPE:dance-single;
#DESCRIPTION:Basic;
#CHARTSTYLE:;
#DIFFICULTY:Easy;
#METER:3;
#RADARVALUES:0.138036,0.155373,0.000000,0.007730,0.000000,125.000000,125.000000,0.000000,1.000000,0.000000,0.000000,0.000000,0.000000,0.000000,0.138036,0.155373,0.000000,0.007730,0.000000,125.000000,125.000000,0.000000,1.000000,0.000000,0.000000,0.000000,0.000000,0.000000;
#CREDIT:;
#NOTES:
1000
0000
1000
0000
,
0001
0000
0001
0000
,
0010
0000
0010
0000
,
1000
0000
0000
0000
,
0001
0000
0001
0000
,
0100
0000
1000
0000
,
0010
0000
0001
0000
,
1000
0000
0000
0000
,
0001
0000
0010
0000
,
0100
0000
1000
1000
,
1000
0000
1000
0000
,
0002
0000
0003
0000
,
0001
0000
0001
0000
,
1000
0000
1000
0000
,
0010
0000
0010
0000
,
0001
0000
0100
0000
,
0001
0000
0010
0000
,
0001
0000
0010
0000
,
1000
0000
0100
0000
,
1000
0000
0100
0000
,
1000
0000
0100
0000
,
0100
0000
0010
0000
,
0010
0000
0010
0000
,
1000
0000
0000
0000
,
0001
0000
0100
0000
,
0001
0000
0100
0000
,
0001
0000
1000
0000
,
1000
0000
0000
0000
,
0001
0000
0010
0000
,
0010
0000
0100
0000
,
0100
0000
1000
0000
,
1000
0000
0000
0000
,
0001
0000
0010
0000
,
1000
0000
0100
0000
,
0001
0000
0100
0000
,
1000
0000
0000
0000
,
0000
0000
0010
0000
,
0100
0000
1000
0000
,
0001
0000
0100
0000
,
0010
0000
0100
0000
,
0001
0000
0010
0000
,
0100
0000
0100
0000
,
1000
0000
0001
0000
,
0100
0000
0000
0000
,
1000
0000
0001
0000
,
0100
0000
0010
0000
,
1000
0000
0010
0000
,
0100
0000
0100
0000
,
0001
0000
0100
0000
,
0001
0000
0010
0000
,
1000
0000
0010
0000
,
1000
0000
0100
0000
,
1000
0000
0010
0000
,
0010
0000
1000
0000
,
0010
0000
0010
0000
,
1000
0000
0001
0000
,
0000
0100
0000
0100
,
0000
1000
0000
0010
,
0000
0001
0000
1000
,
0000
0000
0000
0000
,
1000
0000
0100
0000
,
0100
0000
0010
0000
,
0001
0000
0100
0000
,
1000
0000
0100
0000
,
1000
0000
0010
0000
,
0100
0000
1000
0000
,
0001
0000
0010
0000
,
1000
0000
0000
0000
;

//---------------dance-single - Basic----------------
#NOTEDATA:;
#CHARTNAME:;
#STEPSTYPE:dance-single;
#DESCRIPTION:Basic;
#CHARTSTYLE:;
#DIFFICULTY:Medium;
#METER:3;
#RADARVALUES:0.215336,0.313065,0.038650,0.069570,0.000000,195.000000,190.000000,5.000000,9.000000,0.000000,0.000000,0.000000,0.000000,0.000000,0.215336,0.313065,0.038650,0.069570,0.000000,195.000000,190.000000,5.000000,9.000000,0.000000,0.000000,0.000000,0.000000,0.000000;
#CREDIT:;
#NOTES:
1000
0000
1000
0000
,
0001
0000
0001
0000
,
0010
0000
0010
0000
,
2000
0000
3000
0000
,
0001
0000
0001
0000
,
0100
0000
1000
0000
,
0010
0000
0001
0000
,
2000
0000
3000
0000
,
0001
0000
0010
0000
,
0100
0000
1000
1000
,
1000
0000
1000
0000
,
0002
0000
0003
0000
,
0001
0001
0001
0010
,
1000
1000
1000
0100
,
0010
0010
0010
0001
,
0001
1000
0100
0010
,
0001
1000
0010
0100
,
0001
1000
0010
0100
,
1000
0001
0100
0100
,
1000
0100
0100
0000
,
1000
0100
0100
0100
,
0100
0010
0010
0010
,
0010
0001
0010
0100
,
1000
0000
0000
0000
,
0001
0001
0100
0100
,
0001
0001
0100
0100
,
0001
1000
1000
1000
,
1000
0000
0000
0000
,
0001
0100
0010
0010
,
0010
0000
0100
0100
,
0100
1000
1000
0010
,
2000
0000
0000
3000
,
0001
0100
0010
1000
,
1000
0001
0100
0010
,
0001
1000
0100
0010
,
2000
0000
0000
0000
,
3000
0000
0010
0000
,
0100
0000
1000
0000
,
0001
0000
0100
0000
,
0010
0000
0100
0000
,
0001
0000
0010
0000
,
0100
0000
0100
0000
,
1000
0000
0001
0000
,
0200
0000
0300
0000
,
1001
0000
1001
0000
,
0110
0110
0110
1000
,
1000
0000
0010
0000
,
0100
0100
0100
0001
,
0001
0000
0100
0000
,
0001
0010
0010
1000
,
1000
0010
0010
1000
,
1000
0100
0100
0000
,
1000
0100
0010
0001
,
0010
0100
1000
0010
,
0010
0001
0010
0100
,
1000
0000
0002
0000
,
0003
0100
1000
0100
,
0001
1000
0010
0010
,
1000
0001
0100
1000
,
2000
0000
0000
3000
,
1000
0001
0100
0100
,
0100
1000
0010
0010
,
0001
1000
0100
0010
,
1000
0000
0100
0000
,
1000
0000
0010
0000
,
0100
0000
1000
0000
,
0001
0000
0010
0000
,
2000
0000
3000
0000
;
