#VERSION:0.83;
#TITLE:TEKKEN 8 Fallen Destiny\: Storm Rising;
#SUBTITLE:;
#ARTIST:Tekken;
#TITLETRANSLIT:;
#SUBTITLETRANSLIT:;
#ARTISTTRANSLIT:;
#GENRE:;
#ORIGIN:;
#CREDIT:Gorilla v1.1.3 (Dancing Monkeys v1.06);
#BANNER:;
#BACKGROUND:hq720.png;
#PREVIEWVID:;
#JACKET:;
#CDIMAGE:;
#DISCIMAGE:;
#LYRICSPATH:;
#CDTITLE:;
#MUSIC:TEKKEN 8 OST Fallen Destiny 1st STORM RISING.mp3;
#OFFSET:-0.493583;
#SAMPLESTART:43.974312;
#SAMPLELENGTH:12.000000;
#SELECTABLE:YES;
#BPMS:0.000=137.992;
#STOPS:;
#DELAYS:;
#WARPS:;
#TIMESIGNATURES:0.000=4=4;
#TICKCOUNTS:0.000=4;
#COMBOS:0.000=1;
#SPEEDS:0.000=1.000=0.000=0;
#SCROLLS:0.000=1.000;
#FAKES:;
#LABELS:0.000=Song Start;
#BGCHANGES:;
#KEYSOUNDS:;
#ATTACKS:
;

//---------------dance-single - Basic----------------
#NOTEDATA:;
#CHARTNAME:Basic;
#STEPSTYPE:dance-single;
#DESCRIPTION:Basic;
#CHARTSTYLE:;
#DIFFICULTY:Easy;
#METER:3;
#RADARVALUES:0.134852,0.212392,0.013882,0.083291,0.000000,136.000000,134.000000,2.000000,12.000000,0.000000,0.000000,0.000000,0.000000,0.000000,0.134852,0.212392,0.013882,0.083291,0.000000,136.000000,134.000000,2.000000,12.000000,0.000000,0.000000,0.000000,0.000000,0.000000;
#CREDIT:Basic;
#NOTES:
0010
0000
0001
0000
,
1000
0000
0010
0000
,
0100
0000
1000
0000
,
0010
0000
0100
0000
,
0001
0000
1000
0000
,
0010
0000
0100
0000
,
0010
0000
1000
0000
,
0001
0000
0000
1001
,
0000
0010
0010
0010
,
1000
1000
1000
0001
,
0001
0001
1000
1000
,
1000
0010
0010
0010
,
1000
1000
1000
0010
,
0010
0010
1000
1000
,
1000
0010
0010
0010
,
1000
1000
0000
0001
,
0000
1000
0000
0010
,
0000
1000
0000
0100
,
0000
0010
0000
0100
,
0000
0001
0000
0100
,
0000
0010
0000
1000
,
1000
1000
0000
0010
,
0000
0001
0000
0020
,
0000
0030
0000
0002
,
0000
0000
0000
0000
,
0000
0000
0003
2000
,
0000
0000
0000
0000
,
0000
0000
3000
0200
,
0000
0000
0000
0000
,
0000
0300
0000
0000
,
2000
0000
0000
0000
,
0000
3000
0000
0002
,
0000
0000
0000
0000
,
0000
0003
0000
0200
,
0000
0000
0000
0000
,
0000
0000
0300
2000
,
0000
0000
0000
0000
,
0000
3000
0000
1000
,
0000
0010
0000
0001
,
0000
0100
0000
0010
,
0000
1000
0000
0010
,
0000
0100
0000
0010
,
0000
0001
0000
0010
,
0000
1000
0000
0100
,
0000
0010
0000
0001
,
0000
0100
0000
0010
,
0000
1000
0000
0001
,
0000
0100
0000
0002
,
0000
0000
0000
0000
,
0000
0003
0000
0200
,
0000
0000
0000
0300
,
0000
0010
0000
1001
,
0000
0010
0010
0010
,
1000
1000
1000
0010
,
0010
0010
1000
1000
,
1000
0010
0010
0010
,
1000
1000
1000
0100
,
0100
0100
1000
1000
,
1000
0100
0100
0100
,
0001
0001
0001
0010
,
0000
0000
0010
0000
,
0000
1000
1000
0100
,
0000
1000
1000
0000
,
0010
0010
0010
2000
,
0000
0000
0000
0000
,
0000
0000
3000
0000
,
0200
0000
0000
0000
,
0000
0000
0000
0000
,
0300
0000
0000
0000
;

//---------------dance-single - Basic----------------
#NOTEDATA:;
#CHARTNAME:;
#STEPSTYPE:dance-single;
#DESCRIPTION:Basic;
#CHARTSTYLE:;
#DIFFICULTY:Medium;
#METER:3;
#RADARVALUES:0.186413,0.236859,0.020823,0.097173,0.000000,188.000000,185.000000,3.000000,14.000000,0.000000,0.000000,0.000000,0.000000,0.000000,0.186413,0.236859,0.020823,0.097173,0.000000,188.000000,185.000000,3.000000,14.000000,0.000000,0.000000,0.000000,0.000000,0.000000;
#CREDIT:;
#NOTES:
// measure 0
0010
0010
0001
0001
,  // measure 1
1000
1000
0010
0010
,  // measure 2
0100
0100
1000
1000
,  // measure 3
0010
0010
0100
0100
,  // measure 4
0001
0001
1000
1000
,  // measure 5
0010
0010
0100
0100
,  // measure 6
0010
0010
1000
1000
,  // measure 7
0001
0001
0000
1001
,  // measure 8
0010
0010
0010
0010
,  // measure 9
1000
1000
1000
0001
,  // measure 10
0001
0001
1000
1000
,  // measure 11
1000
0010
0010
0010
,  // measure 12
1000
1000
1000
0010
,  // measure 13
0010
0010
1000
1000
,  // measure 14
1000
0010
0010
0010
,  // measure 15
1000
1000
0001
0001
,  // measure 16
1000
1000
0010
0010
,  // measure 17
1000
1000
0100
0100
,  // measure 18
0010
0010
0100
0100
,  // measure 19
0001
0001
0100
0100
,  // measure 20
0010
0010
0010
1000
,  // measure 21
1000
1000
0100
0010
,  // measure 22
0001
0010
1000
0020
,  // measure 23
0000
0000
0030
0002
,  // measure 24
0000
0000
0000
0000
,  // measure 25
0000
0000
0003
2000
,  // measure 26
0000
0000
0000
0000
,  // measure 27
0000
0000
3000
0200
,  // measure 28
0000
0000
0000
0000
,  // measure 29
0000
0000
0000
0300
,  // measure 30
2000
0000
0000
0000
,  // measure 31
0000
0000
3000
0002
,  // measure 32
0000
0000
0000
0000
,  // measure 33
0000
0000
0003
0200
,  // measure 34
0000
0000
0000
0000
,  // measure 35
0000
0000
0300
2000
,  // measure 36
0000
0000
0000
0000
,  // measure 37
0000
0000
3000
1000
,  // measure 38
1000
0010
0010
0001
,  // measure 39
0001
0100
0100
0010
,  // measure 40
0010
1000
1000
0010
,  // measure 41
0010
0100
0100
0010
,  // measure 42
0010
0001
0001
0010
,  // measure 43
0010
1000
1000
0100
,  // measure 44
0100
0010
0010
0001
,  // measure 45
0001
0100
0100
0010
,  // measure 46
0010
1000
1000
0001
,  // measure 47
0001
0100
0100
0002
,  // measure 48
0000
0000
0000
0000
,  // measure 49
0000
0000
0003
0200
,  // measure 50
0000
0000
0000
0000
,  // measure 51
0300
0002
0003
1001
,  // measure 52
0010
0010
0010
0010
,  // measure 53
1000
1000
1000
0010
,  // measure 54
0010
0010
1000
1000
,  // measure 55
1000
0020
0000
0030
,  // measure 56
1000
1000
1000
0100
,  // measure 57
0100
0100
1000
1000
,  // measure 58
1000
0100
0100
0100
,  // measure 59
0001
0001
0001
0010
,  // measure 60
0000
0000
0010
0000
,  // measure 61
0000
1000
1000
0100
,  // measure 62
0100
1000
1000
0000
,  // measure 63
0010
0010
0010
2000
,  // measure 64
0000
0000
0000
0000
,  // measure 65
0000
0000
3000
0000
,  // measure 66
0200
0000
0000
0000
,  // measure 67
0000
0000
0000
0000
,  // measure 68
0300
1001
0000
0000
;
