#TITLE:onlymp3.to - Drake Sticky Lyrics -fpBDHN_aG5g-192k-1696850356;
#SUBTITLE:;
#ARTIST:Dancing Monkeys Project;
#TITLETRANSLIT:;
#SUBTITLETRANSLIT:;
#ARTISTTRANSLIT:;
#GENRE:;
#CREDIT:Gorilla v1.1.3 (Dancing Monkeys v1.06);
#BANNER:;
#BACKGROUND:;
#LYRICSPATH:;
#CDTITLE:;
#MUSIC:onlymp3.to - Drake Sticky Lyrics -fpBDHN_aG5g-192k-1696850356.mp3;
#OFFSET:-0.053812;
#SAMPLESTART:43.847561;
#SAMPLELENGTH:12.000000;
#SELECTABLE:YES;
#BPMS:0.000000=137.005997
;
#STOPS:
;
#BGCHANGES:;
#KEYSOUNDS:;
#ATTACKS:;

//---------------dance-single - Basic----------------
#NOTES:
     dance-single:
     Basic:
     Easy:
     6:
     0.216162,0.241958,0.000000,0.038066,0.000000,159.000000,159.000000,0.000000,4.000000,0.000000,0.000000,0.216162,0.241958,0.000000,0.038066,0.000000,159.000000,159.000000,0.000000,4.000000,0.000000,0.000000:
// measure 0
0000
0000
0000
0000
,  // measure 1
0000
0000
0000
0000
,  // measure 2
0000
0000
0000
0000
,  // measure 3
0000
0000
0000
0000
,  // measure 4
2000
0000
0000
0000
,  // measure 5
0000
0000
0000
0000
,  // measure 6
0000
0000
0000
0000
,  // measure 7
0000
0000
0000
0000
,  // measure 8
0000
0000
0000
3000
0002
0000
0000
0000
,  // measure 9
0000
0000
0000
0000
,  // measure 10
0000
0000
0000
0000
,  // measure 11
0000
0000
0000
0003
1000
0000
0000
0000
,  // measure 12
0020
0000
0000
0000
,  // measure 13
0000
0000
0000
0000
,  // measure 14
0000
0000
0030
2000
,  // measure 15
0000
0000
0000
3000
,  // measure 16
0010
0100
1000
0010
,  // measure 17
0001
0100
0001
0010
,  // measure 18
1000
0100
1000
0010
,  // measure 19
0001
0100
1000
0010
,  // measure 20
1000
0010
0010
0100
,  // measure 21
0001
0100
0100
0010
,  // measure 22
1000
0010
0010
0100
,  // measure 23
0001
0100
0100
0010
,  // measure 24
0001
1000
0010
0001
,  // measure 25
1000
0100
1000
0010
,  // measure 26
0001
0010
1000
0100
,  // measure 27
1000
0010
0001
0100
,  // measure 28
0001
0100
0010
0001
,  // measure 29
1000
0100
0001
0010
,  // measure 30
1000
0010
1000
0100
,  // measure 31
0010
0100
1000
0010
,  // measure 32
0001
0010
1000
0100
,  // measure 33
0001
0100
1000
0010
,  // measure 34
1000
0100
0001
0010
,  // measure 35
0001
0010
1000
0001
,  // measure 36
0010
0100
0001
0010
,  // measure 37
1000
0100
0001
0010
,  // measure 38
1000
0010
0001
0100
,  // measure 39
0001
0100
1000
0010
,  // measure 40
1000
0100
0001
0010
,  // measure 41
0001
0100
1000
0010
,  // measure 42
0100
0010
1000
0100
,  // measure 43
1000
0010
0010
1000
,  // measure 44
0001
0100
0100
0010
,  // measure 45
0010
0100
0001
1000
,  // measure 46
0001
0010
0100
1000
,  // measure 47
0001
0100
0010
0100
,  // measure 48
1000
0100
0001
0010
,  // measure 49
1000
0100
0001
0010
,  // measure 50
1000
0010
1000
0100
,  // measure 51
0001
0000
0010
1000
,  // measure 52
0010
0100
1000
0010
,  // measure 53
0001
0010
1000
0100
,  // measure 54
0000
0000
1000
0000
,  // measure 55
0000
0000
0001
0000
,  // measure 56
0000
0000
0001
0000
;

//---------------dance-single - Standard----------------
#NOTES:
     dance-single:
     Standard:
     Medium:
     7:
     0.413291,0.457033,0.152265,0.000000,0.000000,304.000000,288.000000,16.000000,0.000000,0.000000,0.000000,0.413291,0.457033,0.152265,0.000000,0.000000,304.000000,288.000000,16.000000,0.000000,0.000000,0.000000:
0000
0000
0000
0000
0001
0000
0000
0000
,
0000
0000
0000
0000
1000
0000
0000
0000
,
0000
0000
0000
0000
0001
0000
0000
0000
,
0000
0000
0000
0000
1000
0000
0000
0000
,
0000
0000
0000
0000
0001
0000
0000
0000
,
0000
0000
0000
0000
1000
0000
0000
0000
,
0000
0000
0000
0000
0001
0000
0000
0000
,
0000
0000
0000
0000
0001
0000
0000
0000
,
0000
0000
0000
0000
0001
0000
0000
0000
,
0000
0000
0000
0000
1000
0000
0000
0000
,
0000
0000
0000
0000
0001
0000
0000
0000
,
0000
0000
0000
0000
0001
0000
0000
0000
,
0000
0000
0000
0000
0001
0000
0000
0000
,
0000
0000
0000
0000
1000
0000
0000
0000
,
0000
0000
0000
0000
1000
0000
0000
0000
,
0000
0000
0000
0000
0001
0000
0000
0000
,
0011
0000
1000
0100
1000
0001
0100
0000
,
1100
0000
0001
0010
0001
1000
0010
0000
,
1010
0000
0001
0100
0001
1000
0100
0000
,
1100
0000
0001
0010
0001
1000
0010
0000
,
1010
0000
1000
0100
0010
0010
0001
0000
,
1010
0000
1000
0100
0010
0010
0001
0000
,
1100
0000
1000
0010
0100
0100
0001
0000
,
0011
0000
0001
0100
0010
0010
1000
0010
,
0001
0000
1000
0100
0100
0100
0010
0001
,
0001
0100
0010
0001
0100
0010
0100
0010
,
0001
0100
0010
0001
0100
0010
0100
0010
,
0001
0100
0010
0001
0100
0010
0100
0010
,
0001
0000
1000
0100
0100
0100
0010
0001
,
0001
0100
0010
0001
0100
0010
0100
0010
,
0001
0100
0010
0001
0100
0010
0100
0010
,
0001
0100
0010
0001
0100
0010
0100
0010
,
0001
0100
0001
1000
0001
0010
1000
0010
,
0001
0100
0010
0001
0100
0010
0100
0010
,
1000
0100
0010
1000
0100
0010
0100
0010
,
0001
0100
0001
1000
0001
0010
1000
0010
,
0001
0100
0010
0001
0100
0010
0100
0010
,
0001
0010
0100
0001
0010
0100
0010
0100
,
1000
0100
0010
1000
0100
0010
0100
0000
,
0011
0000
1000
0100
1000
0001
0100
0000
,
0011
0000
1000
0100
1000
0001
0100
0000
,
1100
0000
0001
0010
0001
1000
0010
0000
,
0011
0000
1000
0100
1000
0001
0100
0000
,
0011
0000
1000
0100
1000
0010
1000
0000
,
1100
0000
0001
0010
0001
0100
0001
0000
,
0101
0000
1000
0010
1000
0100
1000
0000
,
1010
0000
0001
0100
0001
0010
0001
1000
,
0001
0000
1000
0100
0100
0100
0010
0001
,
0001
0100
0010
0001
0100
0010
0100
0010
,
1000
0010
0100
1000
0010
0100
0010
0100
,
0001
0010
0100
0001
0010
0100
0010
0100
,
0001
0000
1000
0100
0100
0100
0010
0001
,
0001
0100
0010
0001
0100
0010
0100
0010
,
0001
0100
0010
0001
0100
0010
0100
0010
,
0000
0000
0000
0000
0001
0000
0000
0000
,
0000
0000
0000
0000
0001
0000
0000
0000
,
0000
0000
0000
0000
1000
0000
0000
0000
,
;

//---------------dance-single - Heavy----------------
#NOTES:
     dance-single:
     Heavy:
     Hard:
     7:
     0.443200,0.430148,0.152265,0.000000,0.000000,326.000000,310.000000,16.000000,0.000000,0.000000,0.000000,0.443200,0.430148,0.152265,0.000000,0.000000,326.000000,310.000000,16.000000,0.000000,0.000000,0.000000:
1000
0000
1000
0000
1000
0000
0000
0000
,
1000
0000
1000
0000
1000
0000
0000
0000
,
1000
0000
1000
0000
1000
0000
0000
0000
,
0001
0000
0001
0000
0001
0000
0000
0000
,
0001
0000
0001
0000
0001
0000
0000
0000
,
1000
0000
1000
0000
1000
0000
0000
0000
,
1000
0000
1000
0000
1000
0000
0000
0000
,
1000
0000
1000
0000
1000
0000
0000
0000
,
0001
0000
0001
0000
0001
0000
0000
0000
,
1000
0000
1000
0000
1000
0000
0000
0000
,
0001
0000
0001
0000
0001
0000
0000
0000
,
0001
0000
0001
0000
0001
0000
0000
0000
,
0001
0000
0001
0000
0001
0000
0000
0000
,
1000
0000
1000
0000
1000
0000
0000
0000
,
0001
0000
0001
0000
0001
0000
0000
0000
,
0001
0000
0001
0000
0001
0000
0000
0000
,
0110
0000
1000
0001
1000
0010
1000
0000
,
0110
0000
1000
0001
1000
0100
1000
0000
,
0110
0000
1000
0001
1000
0010
1000
0000
,
0110
0000
0001
1000
0001
0100
0001
0000
,
1100
0000
0001
0010
0001
0001
0100
0000
,
0011
0000
1000
0100
1000
1000
0010
0000
,
1100
0000
0001
0010
0001
0001
0100
0000
,
0011
0000
1000
0100
1000
1000
0010
1000
,
1000
0000
0100
1000
1000
1000
0001
0010
,
1000
0000
0001
1000
0010
1000
0010
1000
,
1000
0000
0001
1000
0100
1000
0100
1000
,
0001
0000
1000
0001
0010
0001
0010
0001
,
1000
0000
0100
1000
1000
1000
0001
0010
,
1000
0000
0001
1000
0010
1000
0010
1000
,
0001
0000
1000
0001
0010
0001
0010
0001
,
1000
0000
0001
1000
0010
1000
0010
1000
,
1000
0010
0100
0010
1000
0001
1000
0100
,
1000
0000
0001
1000
0010
1000
0010
1000
,
0001
0000
1000
0001
0100
0001
0100
0001
,
1000
0010
0100
0010
1000
0001
1000
0100
,
1000
0000
0001
1000
0010
1000
0010
1000
,
1000
0000
0001
1000
0010
1000
0010
1000
,
1000
0000
0001
1000
0010
1000
0010
0000
,
0110
0000
1000
0001
1000
0010
1000
0000
,
0110
0000
1000
0001
1000
0010
1000
0000
,
0110
0000
0001
1000
0001
0010
0001
0000
,
0110
0000
1000
0001
1000
0010
1000
0000
,
0011
0000
0100
0010
1000
0001
1000
0000
,
1100
0000
0010
0100
0001
1000
0001
0000
,
0101
0000
0010
0100
1000
0001
1000
0000
,
1010
0000
0100
0010
0001
1000
0001
0100
,
1000
0000
0100
1000
1000
1000
0001
0010
,
1000
0000
0001
1000
0010
1000
0010
1000
,
0001
0000
1000
0001
0010
0001
0010
0001
,
1000
0000
0001
1000
0010
1000
0010
1000
,
1000
0000
0100
1000
1000
1000
0001
0010
,
1000
0000
0001
1000
0010
1000
0010
1000
,
1000
0000
0001
1000
0100
1000
0100
1000
,
1000
0000
1000
0000
1000
0000
0000
0000
,
0001
0000
0001
0000
0001
0000
0000
0000
,
0001
0000
0001
0000
0001
0000
0000
0000
,
;
