#TITLE:Stayed Gone;
#SUBTITLE:Alaster vs Mr. Vox;
#ARTIST:Hazbin Hotel;
#TITLETRANSLIT:;
#SUBTITLETRANSLIT:;
#ARTISTTRANSLIT:;
#GENRE:;
#CREDIT:Gorilla v1.1.3 (Dancing Monkeys v1.06);
#BANNER:;
#BACKGROUND:;
#LYRICSPATH:;
#CDTITLE:;
#MUSIC:Hazbin Hotel Stayed Gone (Sped-Up).mp3;
#OFFSET:-2.074125;
#SAMPLESTART:53.736622;
#SAMPLELENGTH:12.000000;
#SELECTABLE:YES;
#BPMS:0.000000=116.138397
;
#STOPS:
;
#BGCHANGES:;
#KEYSOUNDS:;
#ATTACKS:;

//---------------dance-single - Basic----------------
#NOTES:
     dance-single:
     Basic:
     Easy:
     2:
     0.119151,0.140389,0.000000,0.025467,0.000000,131.000000,131.000000,0.000000,4.000000,0.000000,0.000000,0.119151,0.140389,0.000000,0.025467,0.000000,131.000000,131.000000,0.000000,4.000000,0.000000,0.000000:
// measure 0
0001
0000
0000
0000
,  // measure 1
1000
0000
0000
0000
,  // measure 2
1000
0000
0000
0000
,  // measure 3
1000
0000
0000
0000
,  // measure 4
0001
0000
0000
0000
,  // measure 5
1000
0000
0000
0000
,  // measure 6
1000
0000
0000
0000
,  // measure 7
1000
0000
0001
0000
,  // measure 8
0001
0000
1000
0000
,  // measure 9
0001
0000
1000
1000
,  // measure 10
1000
0000
0001
0000
,  // measure 11
0001
0000
0010
0010
,  // measure 12
0010
0000
0001
0000
,  // measure 13
0001
0000
1000
0000
,  // measure 14
1000
0000
0001
0000
,  // measure 15
0200
0000
0000
0000
,  // measure 16
0000
0000
0000
0000
,  // measure 17
0300
0000
0010
0000
,  // measure 18
1000
0000
0010
0000
,  // measure 19
1000
0000
0100
0000
,  // measure 20
0001
0000
0100
0000
,  // measure 21
1000
0000
1000
0000
,  // measure 22
1000
0000
0010
0000
,  // measure 23
0001
0000
0010
0000
,  // measure 24
1000
0000
1000
0000
,  // measure 25
1000
0000
1000
0000
,  // measure 26
1000
0000
0010
0000
,  // measure 27
1000
0000
0100
0000
,  // measure 28
1000
0000
0100
0000
,  // measure 29
1000
0000
1000
0000
,  // measure 30
0001
0000
0001
0000
,  // measure 31
1000
0000
0010
0000
,  // measure 32
0001
0000
0100
0000
,  // measure 33
0001
0000
1000
0000
,  // measure 34
0001
0000
0001
0000
,  // measure 35
1000
0000
1000
0000
,  // measure 36
1000
0000
0100
0000
,  // measure 37
1000
0000
0010
0000
,  // measure 38
0001
0000
1000
0000
,  // measure 39
1000
0000
1000
0000
,  // measure 40
1000
0000
1000
0000
,  // measure 41
0001
0000
0001
0000
,  // measure 42
0001
0000
0001
0000
,  // measure 43
1000
0000
0100
0000
,  // measure 44
1000
0000
0010
0000
,  // measure 45
1000
0000
0010
0000
,  // measure 46
1000
0000
1000
0000
,  // measure 47
1000
0000
1000
0000
,  // measure 48
0001
0000
0001
0000
,  // measure 49
1000
0000
1000
0000
,  // measure 50
1000
0000
1000
0000
,  // measure 51
0001
0000
0001
0000
,  // measure 52
0010
0000
1000
0000
,  // measure 53
1000
0000
0001
0000
,  // measure 54
0001
0000
1000
0000
,  // measure 55
1000
0000
0010
0000
,  // measure 56
0001
0000
0001
0000
,  // measure 57
1000
0000
1000
0000
,  // measure 58
0001
0000
0000
0000
,  // measure 59
1000
0000
0000
0001
,  // measure 60
0000
0010
0000
0001
,  // measure 61
0000
1000
0000
0010
,  // measure 62
0000
0100
0000
0001
,  // measure 63
0000
0010
0000
0000
,  // measure 64
1000
0000
0010
0000
,  // measure 65
0001
0000
0010
0000
,  // measure 66
0001
0000
0000
1000
,  // measure 67
0000
1000
0000
0010
,  // measure 68
0000
0100
0000
0010
,  // measure 69
0000
2000
0000
0000
,  // measure 70
3000
0000
1000
0000
,  // measure 71
0000
0002
0000
0000
,  // measure 72
0000
0003
0000
0000
,  // measure 73
0002
0000
0003
0000
;
