#VERSION:0.83;
#TITLE:The Kid LAROI, Justin Bieber - STAY;
#SUBTITLE:;
#ARTIST:Dancing Monkeys Project;
#TITLETRANSLIT:;
#SUBTITLETRANSLIT:;
#ARTISTTRANSLIT:;
#GENRE:;
#ORIGIN:;
#CREDIT:Gorilla v1.1.3 (Dancing Monkeys v1.06);
#BANNER:sddefault.png;
#BACKGROUND:stay___justin_bieber__the_kid_laroi__fanart__by_crossedchriss_des2mx0-pre.png;
#PREVIEWVID:;
#JACKET:;
#CDIMAGE:;
#DISCIMAGE:;
#LYRICSPATH:;
#CDTITLE:;
#MUSIC:The Kid LAROI, Justin Bieber - STAY (ZAX Extended Mix) (Audio).mp3;
#OFFSET:-0.791905;
#SAMPLESTART:37.498482;
#SAMPLELENGTH:12.000000;
#SELECTABLE:YES;
#BPMS:0.000=169.997;
#STOPS:;
#DELAYS:;
#WARPS:;
#TIMESIGNATURES:0.000=4=4;
#TICKCOUNTS:0.000=4;
#COMBOS:0.000=1;
#SPEEDS:0.000=1.000=0.000=0;
#SCROLLS:0.000=1.000;
#FAKES:;
#LABELS:0.000=Song Start;
#BGCHANGES:;
#KEYSOUNDS:;
#ATTACKS:
;

//---------------dance-single - Basic----------------
#NOTEDATA:;
#CHARTNAME:Basic;
#STEPSTYPE:dance-single;
#DESCRIPTION:Basic;
#CHARTSTYLE:;
#DIFFICULTY:Easy;
#METER:4;
#RADARVALUES:0.084871,0.089395,0.000000,0.000000,0.000000,159.000000,159.000000,0.000000,0.000000,0.000000,0.000000,0.000000,0.000000,0.000000,0.084871,0.089395,0.000000,0.000000,0.000000,159.000000,159.000000,0.000000,0.000000,0.000000,0.000000,0.000000,0.000000,0.000000;
#CREDIT:Basic;
#NOTES:
// measure 0
0000
1000
0000
1000
,  // measure 1
0001
0000
0000
1000
,  // measure 2
0001
0000
0000
0000
,  // measure 3
0010
0000
0000
0001
,  // measure 4
1000
0000
0001
0100
,  // measure 5
0001
0000
0000
0000
,  // measure 6
0001
0000
0000
0000
,  // measure 7
0001
0000
0010
0000
,  // measure 8
0001
0000
0010
0000
,  // measure 9
0100
0000
0010
0000
,  // measure 10
0001
0000
0010
0000
,  // measure 11
1000
0000
1000
0000
,  // measure 12
0001
0000
0010
0000
,  // measure 13
0001
0000
1000
0000
,  // measure 14
0010
0000
0100
0000
,  // measure 15
0001
0000
0010
0000
,  // measure 16
1000
0000
0010
0000
,  // measure 17
0001
0000
1000
0000
,  // measure 18
0010
0000
0001
0000
,  // measure 19
0010
0000
1000
0000
,  // measure 20
0001
0000
0010
0000
,  // measure 21
0100
0000
0001
0000
,  // measure 22
1000
0000
0001
0000
,  // measure 23
0010
0000
0100
0000
,  // measure 24
1000
0000
0010
1000
,  // measure 25
0000
0001
0000
0100
,  // measure 26
0000
0010
0000
1000
,  // measure 27
0000
0001
0000
0100
,  // measure 28
0000
0010
0000
0100
,  // measure 29
0000
0010
0000
0100
,  // measure 30
0000
1000
0000
0100
,  // measure 31
0000
0010
0000
0001
,  // measure 32
0000
0100
0000
1000
,  // measure 33
0000
0010
0000
0100
,  // measure 34
0000
0010
0000
0001
,  // measure 35
0000
1000
0000
0001
,  // measure 36
0000
0010
0000
0100
,  // measure 37
0000
0001
0000
1000
,  // measure 38
0000
0010
0000
0100
,  // measure 39
0000
0010
0000
0100
,  // measure 40
0000
0001
0000
1000
,  // measure 41
0000
0010
0000
1000
,  // measure 42
0000
0010
0000
0001
,  // measure 43
0000
1000
0000
0100
,  // measure 44
0000
0010
0000
1000
,  // measure 45
0000
0100
0000
0001
,  // measure 46
0000
0010
0000
0100
,  // measure 47
0000
0001
0000
0100
,  // measure 48
0000
0001
0000
1000
,  // measure 49
0000
0010
0000
0001
,  // measure 50
0000
0010
0000
0100
,  // measure 51
0000
0001
0000
0010
,  // measure 52
0000
0100
0000
0100
,  // measure 53
0000
0001
0000
0100
,  // measure 54
0000
1000
0000
0010
,  // measure 55
0000
1000
0000
0100
,  // measure 56
0000
1000
0000
0010
,  // measure 57
0000
0001
0000
1000
,  // measure 58
0000
0010
0000
0001
,  // measure 59
0000
0100
0000
1000
,  // measure 60
0000
0010
0000
1000
,  // measure 61
0000
0010
0000
0100
,  // measure 62
0000
0001
0000
0010
,  // measure 63
0000
1000
0000
0100
,  // measure 64
0000
0010
0000
0100
,  // measure 65
0000
0010
0000
0100
,  // measure 66
0000
0001
0000
0010
,  // measure 67
0000
1000
0000
0100
,  // measure 68
0000
0010
0000
0100
,  // measure 69
0000
0010
0000
1000
,  // measure 70
0000
0010
0000
0100
,  // measure 71
0000
0010
0000
0001
,  // measure 72
0000
0100
0000
0010
,  // measure 73
0000
1000
0000
0010
,  // measure 74
0000
0100
0000
1000
,  // measure 75
0000
0010
0000
0001
,  // measure 76
0000
0010
0000
0100
,  // measure 77
0000
0010
0000
1000
,  // measure 78
0000
0001
0000
1000
,  // measure 79
0000
0100
0000
1000
;
