#VERSION:0.83;
#TITLE:Static Shock Theme Song;
#SUBTITLE:(2);
#ARTIST:Unknown artist;
#TITLETRANSLIT:;
#SUBTITLETRANSLIT:;
#ARTISTTRANSLIT:;
#GENRE:;
#ORIGIN:;
#CREDIT:;
#BANNER:;
#BACKGROUND:;
#PREVIEWVID:;
#JACKET:;
#CDIMAGE:;
#DISCIMAGE:;
#LYRICSPATH:;
#CDTITLE:;
#MUSIC:Static Shock Season 3 intro.mp3;
#OFFSET:0.000000;
#SAMPLESTART:0.000000;
#SAMPLELENGTH:12.000000;
#SELECTABLE:YES;
#BPMS:0.000=139.000;
#STOPS:;
#DELAYS:0.000=1.000;
#WARPS:;
#TIMESIGNATURES:0.000=4=4;
#TICKCOUNTS:0.000=4;
#COMBOS:0.000=1;
#SPEEDS:0.000=1.000=0.000=0;
#SCROLLS:0.000=1.000;
#FAKES:;
#LABELS:0.000=Song Start;
#BGCHANGES:;
#KEYSOUNDS:;
#ATTACKS:
;

//---------------dance-single - ----------------
#NOTEDATA:;
#CHARTNAME:;
#STEPSTYPE:dance-single;
#DESCRIPTION:;
#CHARTSTYLE:;
#DIFFICULTY:Easy;
#METER:1;
#RADARVALUES:0.149407,0.136957,0.000000,0.016601,0.000000,63.000000,63.000000,0.000000,1.000000,0.000000,0.000000,0.000000,0.000000,0.000000,0.149407,0.136957,0.000000,0.016601,0.000000,63.000000,63.000000,0.000000,1.000000,0.000000,0.000000,0.000000,0.000000,0.000000;
#CREDIT:;
#NOTES:
// measure 0
0000
0000
0000
0000
,  // measure 1
0000
1000
0000
0100
,  // measure 2
0000
0001
0000
0010
,  // measure 3
0000
0100
0000
0010
,  // measure 4
0000
1000
0000
0100
,  // measure 5
0000
0001
0000
0010
,  // measure 6
0000
0100
0000
0010
,  // measure 7
0000
1000
0000
0100
,  // measure 8
0000
0010
0000
0001
,  // measure 9
0000
0010
0000
0100
,  // measure 10
0000
1000
0000
0100
,  // measure 11
0000
0010
0000
0100
,  // measure 12
0000
0001
0000
0010
,  // measure 13
0000
1000
0000
0100
,  // measure 14
0000
0010
0000
0001
,  // measure 15
0000
0010
0000
0100
,  // measure 16
0000
1000
0000
0010
,  // measure 17
0000
0100
0000
0001
,  // measure 18
0000
0010
0000
0100
,  // measure 19
0000
0010
0000
1000
,  // measure 20
0000
0100
0000
0010
,  // measure 21
0000
0001
0000
0010
,  // measure 22
0000
0100
0000
1000
,  // measure 23
0000
0100
0000
0010
,  // measure 24
0000
0001
0000
0010
,  // measure 25
0000
1000
0000
0100
,  // measure 26
0000
0010
0000
1000
,  // measure 27
0000
0100
0000
0001
,  // measure 28
0000
0010
0000
0100
,  // measure 29
0000
1000
0000
0100
,  // measure 30
0000
0010
0000
0100
,  // measure 31
0000
0001
0000
0010
,  // measure 32
0000
0200
0000
0000
,  // measure 33
0300
0000
0000
0000
;
