#TITLE:REMIX Star Vs. The Forces of Evil - Theme Song Extended (I From Another Dimension);
#SUBTITLE:;
#ARTIST:Dancing Monkeys Project;
#TITLETRANSLIT:;
#SUBTITLETRANSLIT:;
#ARTISTTRANSLIT:;
#GENRE:;
#CREDIT:Gorilla v1.1.3 (Dancing Monkeys v1.06);
#BANNER:;
#BACKGROUND:;
#LYRICSPATH:;
#CDTITLE:;
#MUSIC:REMIX Star Vs. The Forces of Evil - Theme Song Extended (I From Another Dimension).mp3;
#OFFSET:-1.795760;
#SAMPLESTART:43.321838;
#SAMPLELENGTH:12.000000;
#SELECTABLE:YES;
#BPMS:0.000000=144.487518
;
#STOPS:
;
#BGCHANGES:;
#KEYSOUNDS:;
#ATTACKS:;

//---------------dance-single - Basic----------------
#NOTES:
     dance-single:
     Basic:
     Easy:
     4:
     0.263646,0.261358,0.000000,0.065136,0.000000,170.000000,170.000000,0.000000,6.000000,0.000000,0.000000,0.263646,0.261358,0.000000,0.065136,0.000000,170.000000,170.000000,0.000000,6.000000,0.000000,0.000000:
1000
0000
0010
0000
,
0200
0300
1000
0100
,
0001
0100
1000
0010
,
1000
0100
0010
0010
,
1000
0010
0010
0100
,
0001
0010
0100
0100
,
0001
0100
0100
0010
,
0001
0100
1000
0010
,
0001
1000
0010
0100
,
0010
1000
0001
0001
,
1000
0100
0001
0010
,
1000
0000
0000
0010
,
0001
0100
1000
0010
,
0001
0010
0001
0010
,
0001
0100
1000
0010
,
0001
0010
0001
0010
,
1000
0001
0100
0010
,
1000
0001
0100
0100
,
0100
0100
0200
0000
,
0000
0000
0300
0001
,
0001
1000
1000
0100
,
0100
0010
0010
1000
,
1000
0100
0100
0001
,
0001
0100
0100
0010
,
0001
1000
0001
0000
,
0200
0300
1000
0010
,
1000
0100
0001
0010
,
1000
0000
0100
0010
,
0001
0100
0001
0010
,
1000
0001
0100
0010
,
0001
0100
1000
0010
,
1000
0001
0100
0100
,
0100
0001
0001
0001
,
1000
0001
0100
0100
,
0100
0100
0200
0000
,
0000
0300
0000
0001
,
0000
0010
0000
0100
,
0000
0001
0000
0010
,
0000
1000
0000
0010
,
0000
0000
0100
0010
,
0001
0100
1000
0010
,
1000
0010
1000
0010
,
0001
0100
1000
0010
,
1000
0001
1000
1000
,
1000
1000
0001
0001
,
0001
0001
0010
0010
,
0010
0010
0020
0000
,
0000
0000
0000
0030
,
0000
0001
0000
0010
,
0000
0000
1000
0000
,
0000
1000
0000
0001
,
0000
0010
0020
0000
,
0000
0000
0000
0000
,
0000
0000
0030
0000
;

//---------------dance-single - Basic----------------
#NOTES:
     dance-single:
     :
     Beginner:
     4:
     0.209366,0.192965,0.000000,0.043424,0.000000,135.000000,135.000000,0.000000,4.000000,0.000000,0.000000,0.209366,0.192965,0.000000,0.043424,0.000000,135.000000,135.000000,0.000000,4.000000,0.000000,0.000000:
// measure 0
1000
0000
0010
0000
,  // measure 1
0200
0300
1000
0100
,  // measure 2
0001
0100
1000
0010
,  // measure 3
1000
0100
0010
0010
,  // measure 4
1000
0010
0010
0100
,  // measure 5
0001
0010
0100
0100
,  // measure 6
0001
0100
0100
0010
,  // measure 7
0001
0100
1000
0010
,  // measure 8
0001
1000
0010
0100
,  // measure 9
0010
1000
0001
0001
,  // measure 10
1000
0100
0001
0010
,  // measure 11
1000
0000
0000
0010
,  // measure 12
0001
0100
1000
0010
,  // measure 13
0001
0010
0001
0010
,  // measure 14
0001
0100
1000
0010
,  // measure 15
0001
0010
0001
0010
,  // measure 16
1000
0001
0100
0010
,  // measure 17
1000
0001
0100
0100
,  // measure 18
0100
0100
0200
0000
,  // measure 19
0000
0000
0300
0001
,  // measure 20
0001
1000
1000
0100
,  // measure 21
0100
0010
0010
1000
,  // measure 22
1000
0100
0100
0001
,  // measure 23
0001
0100
0100
0010
,  // measure 24
0001
1000
0001
0000
,  // measure 25
0200
0300
1000
0010
,  // measure 26
1000
0100
0001
0010
,  // measure 27
1000
0000
0100
0010
,  // measure 28
0001
0100
0001
0010
,  // measure 29
1000
0001
0100
0010
,  // measure 30
0001
0100
1000
0010
,  // measure 31
1000
0001
0100
0100
,  // measure 32
0100
0001
0001
0001
,  // measure 33
1000
0001
0100
0100
,  // measure 34
0100
0100
0200
0000
,  // measure 35
0000
0300
0000
0001
,  // measure 36
0000
0010
0000
0100
,  // measure 37
0000
0001
0000
0010
,  // measure 38
0000
1000
0000
0010
,  // measure 39
0000
0000
0100
0000
;
