#TITLE:stand proud;
#SUBTITLE:;
#ARTIST:Dancing Monkeys Project;
#TITLETRANSLIT:;
#SUBTITLETRANSLIT:;
#ARTISTTRANSLIT:;
#GENRE:;
#CREDIT:Gorilla v1.1.3 (Dancing Monkeys v1.06);
#BANNER:desktop-wallpaper-stardust-crusaders-of-jojo-s-bizarre-adventure.jpg;
#BACKGROUND:STAND_PROUD.jpg;
#LYRICSPATH:;
#CDTITLE:;
#MUSIC:stand proud.mp3;
#OFFSET:-0.226372;
#SAMPLESTART:36.589184;
#SAMPLELENGTH:12.000000;
#SELECTABLE:YES;
#BPMS:0.000000=165.003998
;
#STOPS:
;
#BGCHANGES:;
#KEYSOUNDS:;
#ATTACKS:;

//---------------dance-single - Basic----------------
#NOTES:
     dance-single:
     Basic:
     Easy:
     5:
     0.286807,0.299720,0.000000,0.009515,0.000000,211.000000,211.000000,0.000000,1.000000,0.000000,0.000000,0.286807,0.299720,0.000000,0.009515,0.000000,211.000000,211.000000,0.000000,1.000000,0.000000,0.000000:
// measure 0
0000
0001
0100
0010
,  // measure 1
0000
1000
0002
0100
,  // measure 2
0000
0000
0000
0000
,  // measure 3
0003
1000
0000
0100
,  // measure 4
1000
0010
0100
0000
,  // measure 5
0000
0100
0000
0001
,  // measure 6
0001
0000
1000
0010
,  // measure 7
0000
1000
1000
0010
,  // measure 8
0001
0010
0100
0000
,  // measure 9
0001
0000
0010
0000
,  // measure 10
1000
0001
0100
0000
,  // measure 11
1000
0001
0010
0000
,  // measure 12
0001
1000
0010
0000
,  // measure 13
0001
0000
0010
0000
,  // measure 14
1000
0000
0100
1000
,  // measure 15
0001
0000
0010
0001
,  // measure 16
1000
0000
0100
0001
,  // measure 17
1000
0010
1000
0000
,  // measure 18
1000
0001
0100
0000
,  // measure 19
1000
0001
0010
0000
,  // measure 20
0001
1000
0010
0000
,  // measure 21
1000
0000
0100
0010
,  // measure 22
0001
0000
1000
0010
,  // measure 23
0001
0010
0010
0000
,  // measure 24
0000
1000
0010
1000
,  // measure 25
0000
0001
0010
0001
,  // measure 26
0001
0000
1000
0000
,  // measure 27
0000
0001
0100
0001
,  // measure 28
0000
1000
0010
1000
,  // measure 29
0000
0001
0100
0010
,  // measure 30
0000
0001
0010
0100
,  // measure 31
0000
1000
1000
0010
,  // measure 32
1000
0001
0100
0010
,  // measure 33
1000
0010
0000
0000
,  // measure 34
0000
1000
1000
0010
,  // measure 35
0001
1000
0100
0010
,  // measure 36
1000
0010
1000
0100
,  // measure 37
0001
1000
0100
0010
,  // measure 38
0001
1000
0010
0100
,  // measure 39
1000
0001
0100
0010
,  // measure 40
0001
1000
0100
0010
,  // measure 41
1000
0001
0010
0100
,  // measure 42
1000
0100
1000
0001
,  // measure 43
1000
0001
0100
0010
,  // measure 44
0001
1000
0100
0010
,  // measure 45
1000
0001
0010
0100
,  // measure 46
1000
0001
0010
0100
,  // measure 47
0001
0010
0010
0000
,  // measure 48
0000
0000
0001
0100
,  // measure 49
1000
0100
0010
0000
,  // measure 50
0000
0000
1000
0100
,  // measure 51
1000
0001
0100
0000
,  // measure 52
0001
1000
0010
0000
,  // measure 53
1000
0001
0010
0000
,  // measure 54
0001
0000
1000
0010
,  // measure 55
1000
0001
0100
0000
,  // measure 56
0001
1000
0010
0000
,  // measure 57
0001
0000
1000
0010
,  // measure 58
0001
0010
0100
0000
,  // measure 59
1000
0001
0100
0000
,  // measure 60
0001
1000
0010
0000
,  // measure 61
0001
1000
0010
0000
,  // measure 62
0001
1000
0000
0000
,  // measure 63
1000
0001
0100
0000
,  // measure 64
0001
0000
1000
0010
,  // measure 65
1000
0000
0100
1000
,  // measure 66
0001
0010
0100
0000
,  // measure 67
1000
0001
0100
0000
,  // measure 68
1000
0001
0100
0000
,  // measure 69
1000
0010
0000
0000
,  // measure 70
1000
0000
0000
0000
;

//---------------dance-single - Standard----------------
#NOTES:
     dance-single:
     Standard:
     Medium:
     7:
     0.426812,0.466231,0.199814,0.000000,0.000000,314.000000,293.000000,21.000000,0.000000,0.000000,0.000000,0.426812,0.466231,0.199814,0.000000,0.000000,314.000000,293.000000,21.000000,0.000000,0.000000,0.000000:
0001
0000
0100
0000
0010
0000
0100
0000
,
0000
0000
1000
0100
0200
0000
0100
0000
,
0001
0000
0000
0000
0100
0000
0000
0000
,
0300
0000
1000
0100
0000
0010
0100
0000
,
0011
0000
1000
0100
0010
0000
0000
0001
,
0000
1000
0100
0010
0000
0000
0001
0000
,
0001
0000
1000
0000
0010
0000
1000
0000
,
0000
0000
1000
0000
1000
0000
0010
0100
,
1000
0100
0010
0000
0010
0000
0200
0000
,
0001
0000
0000
0000
0100
0010
0000
0000
,
0011
0000
1000
0000
0100
0000
1000
0000
,
0011
0000
1000
0000
0100
0000
1000
0000
,
1100
0000
0001
0000
0010
0000
0001
0000
,
0001
0000
0000
0000
0100
0010
0000
0000
,
0001
0000
0100
0001
0100
0000
0010
0000
,
0001
0000
0010
0001
0010
0000
0100
0000
,
0001
0000
0100
0001
0100
0000
0010
0000
,
1000
0000
0010
1000
0010
0000
0000
0000
,
0011
0000
1000
0000
0100
0000
1000
0000
,
1010
0000
0001
0000
0100
0000
0001
0000
,
0101
0000
1000
0000
0010
0000
1000
0000
,
1000
0000
0010
0000
0100
0000
0010
0000
,
0001
0000
1000
0000
0010
0000
1000
0000
,
1000
0000
0100
0000
0100
1000
0000
0010
,
0000
1000
0100
1000
0000
0000
0010
0000
,
0000
0001
0010
0001
0000
0000
0100
0000
,
0001
0100
0000
0000
0000
0001
0000
0000
,
0000
0001
0100
0000
0010
0000
1000
0000
,
0000
1000
0100
1000
0000
0000
0010
0000
,
0001
0000
0100
0000
0010
0000
0100
0000
,
1000
0000
0100
0000
0010
0000
0100
0000
,
0000
0000
1000
0000
1000
0000
0010
0100
,
0001
0000
0010
0010
0001
0000
1000
0000
,
1000
0000
0100
0000
0010
0000
0000
0000
,
0000
0000
0001
0000
0001
0000
1100
0000
,
0001
0001
0010
0000
0001
0000
0010
0010
,
1000
0000
0001
0000
0100
0000
0010
1000
,
0001
0001
0010
0000
0001
0000
0010
0010
,
1000
1000
0100
0000
1000
0000
0100
0100
,
0001
0000
0010
0010
0001
0000
1000
0000
,
0001
0001
0010
0000
0001
0000
0010
0010
,
0001
0001
0100
0000
0001
0000
0100
0100
,
1000
0100
0010
0000
0100
0000
0101
0000
,
0001
0000
0010
0010
0001
0000
1000
0000
,
0001
0001
0010
0000
0001
0000
0010
0010
,
1000
1000
0010
0000
1000
0000
0010
0010
,
0001
0001
0100
0000
0001
0000
0100
0100
,
1000
0100
0010
0000
0010
0000
0200
0000
,
0000
0000
0000
0000
0001
0000
1000
1000
,
1000
0010
0100
0000
0010
0000
0000
0000
,
0000
0000
0000
0000
0000
0000
1100
0000
,
0011
0000
1000
0000
0100
0000
1000
0000
,
0011
0000
1000
0000
0100
0000
1000
0000
,
0011
0000
1000
0000
0100
0000
1000
0000
,
0001
0000
1000
0000
0010
0000
1000
0000
,
0011
0000
1000
0000
0100
0000
1000
0000
,
1010
0000
0001
0000
0100
0000
0001
0000
,
0001
0000
1000
0000
0010
0000
1000
0000
,
1000
0000
0100
0000
1000
0010
0000
0000
,
0011
0000
1000
0000
0100
0000
1000
0000
,
0101
0000
1000
0000
0010
0000
1000
0000
,
1010
0000
0001
0000
0100
0000
0001
0000
,
0001
0000
1000
0000
0000
0001
0000
0000
,
0011
0000
1000
0000
0100
0000
1000
0000
,
0001
0000
1000
0000
0010
0000
1000
0000
,
0001
0000
0100
0001
0100
0000
0010
0000
,
1000
0000
0100
0000
1000
0010
0000
0000
,
0011
0000
1000
0000
0100
0000
1000
0000
,
0101
0000
1000
0000
0010
0000
1000
0000
,
1000
0000
0001
0000
0000
0000
0000
0000
,
1000
0000
0000
0000
0000
0000
0000
0000
,
;

//---------------dance-single - Heavy----------------
#NOTES:
     dance-single:
     Heavy:
     Hard:
     8:
     0.486621,0.532836,0.275933,0.009515,0.000000,358.000000,329.000000,29.000000,1.000000,0.000000,0.000000,0.486621,0.532836,0.275933,0.009515,0.000000,358.000000,329.000000,29.000000,1.000000,0.000000,0.000000:
0001
0000
0010
0000
0100
0000
1000
0000
,
0000
0000
1000
0010
0020
0000
0100
0000
,
0001
0000
0000
0000
1000
0000
0000
0000
,
0030
0000
1000
0010
0000
1000
0100
0000
,
1010
0000
0001
0010
0100
0000
0010
0100
,
0000
1000
0001
0010
0000
0000
0001
0001
,
1000
0000
0100
0000
0010
0000
0100
0010
,
1000
0000
0001
0000
0001
0000
1100
0000
,
1000
0001
0100
0000
0100
0000
0020
0000
,
0001
0000
0000
0000
1000
0010
0000
0000
,
1001
0000
0001
0100
0001
0000
0100
0000
,
1001
0000
1000
0100
1000
0000
0100
0000
,
1001
0000
0001
0010
0001
0000
0010
0000
,
0001
0000
0000
0000
1000
0010
0000
0000
,
0001
0000
0010
0100
0010
0000
0001
0000
,
1000
0000
0100
0010
0100
0000
1000
0000
,
1000
0000
0010
0100
0010
0000
1000
0000
,
0001
0000
0100
0001
1000
0000
0000
0000
,
1001
0000
0001
0100
0001
0000
0100
0000
,
1001
0000
1000
0010
1000
0000
0010
0000
,
1001
0000
1000
0100
1000
0000
0100
0000
,
1000
0000
0000
0000
0010
0100
0001
0000
,
1000
0000
0100
0000
0010
0000
0100
0010
,
0001
0000
0010
0000
0010
0100
0000
0010
,
0000
1000
0010
0100
0000
0001
0000
0000
,
0000
1000
0010
0100
0000
0001
0000
0000
,
0000
1000
0000
0100
0000
0010
0000
0100
,
0000
1000
0100
0000
0010
0000
0100
1000
,
0000
1000
0010
0100
0000
0001
0000
0000
,
0001
0000
0010
0000
0100
0000
1000
0000
,
1000
0000
0100
0000
0010
0000
0001
0000
,
1000
0000
0001
0000
0001
0000
1100
0000
,
0000
0000
1001
0000
0010
0000
1010
0000
,
0001
0010
0100
0000
1000
0000
0000
0000
,
0000
0000
1000
0000
1000
0000
1100
0000
,
0001
0001
1000
0010
1000
0000
0001
0001
,
0000
0000
0001
0001
0100
0001
0010
0001
,
0001
0001
1000
0010
1000
0000
0001
0001
,
1000
1000
0001
0100
0001
0000
1000
1000
,
0000
0000
1001
0000
0010
0000
1010
0000
,
0001
0001
1000
0010
1000
0000
0001
0001
,
1000
1000
0001
0010
0001
0000
1000
1000
,
1000
0010
0100
0000
0010
0000
1010
0000
,
0000
0000
1001
0000
0010
0000
1010
0000
,
0001
0001
1000
0010
1000
0000
0001
0001
,
0001
0001
1000
0100
1000
0000
0001
0001
,
1000
1000
0001
0010
0001
0000
1000
1000
,
1000
0001
0100
0000
0100
0000
0020
0000
,
0000
0000
0000
0000
1000
0100
0010
0010
,
1000
0010
1000
0000
0001
0100
0000
0000
,
0000
0000
0000
0000
0001
0000
1100
0000
,
1001
0000
0001
0100
0001
0000
0100
0000
,
1001
0000
0001
0100
0001
0000
0100
0000
,
1001
0000
0001
0100
0001
0000
0100
0000
,
1000
0000
0100
0000
0010
0000
0100
0000
,
1001
0000
0001
0100
0001
0000
0100
0000
,
1001
0000
0001
0100
0001
0000
0100
0000
,
1000
0000
0100
0000
0010
0000
0100
0010
,
1000
0001
1000
0000
0001
1000
0000
0000
,
1001
0000
0001
0100
0001
0000
0100
0000
,
1001
0000
1000
0100
1000
0000
0100
0000
,
1001
0000
1000
0100
1000
0000
0100
0000
,
1000
0000
0001
0000
0000
0010
0000
0000
,
1001
0000
0001
0100
0001
0000
0100
0000
,
1000
0000
0100
0000
0010
0000
0100
0010
,
0001
0000
0010
0100
0010
0000
0001
0000
,
1000
0001
1000
0000
0001
1000
0000
0000
,
1001
0000
0001
0100
0001
0000
0100
0000
,
1001
0000
1000
0010
1000
0000
0010
0000
,
1000
0000
0100
0000
0100
0000
0000
0000
,
0001
0000
0000
0000
0000
0000
0000
0000
,
;

//---------------dance-single - Basic----------------
#NOTES:
     dance-single:
     :
     Beginner:
     5:
     0.415938,0.432929,0.523321,0.104664,0.000000,306.000000,251.000000,55.000000,11.000000,0.000000,0.000000,0.415938,0.432929,0.523321,0.104664,0.000000,306.000000,251.000000,55.000000,11.000000,0.000000,0.000000:
1000
0001
0100
0010
,
0000
2002
0000
0000
,
0000
0000
0000
0000
,
3003
0001
1000
0010
,
1000
0010
0100
0001
,
1000
0100
1000
0001
,
1001
0000
1001
0010
,
0000
1001
1000
0010
,
1001
0010
0110
0000
,
1001
0000
1010
0000
,
1001
0001
0100
0001
,
1000
0001
0010
1000
,
0001
1000
0010
0100
,
0101
0000
1010
0000
,
1001
0010
0100
1000
,
0101
0000
1010
0001
,
1000
0001
0100
1010
,
1000
0010
1000
0001
,
1000
0001
0100
0001
,
1000
0001
0010
1000
,
0001
1000
0010
0000
,
1010
0000
0100
0010
,
0101
0000
1000
0010
,
0001
1010
0010
1000
,
0001
1000
0010
1000
,
0100
1001
0010
0001
,
1001
0000
2000
0001
,
3000
0002
0100
0003
,
0100
1000
0010
1000
,
0000
0001
0100
0010
,
1000
0101
0010
0100
,
0001
1010
1001
0010
,
1000
0001
0100
0010
,
1000
0010
0000
2002
,
3003
1000
0001
1000
,
0001
1001
0220
0330
,
1000
0010
1000
0100
,
0001
1000
0100
0010
,
0001
1000
0010
0100
,
1000
0001
0100
0010
,
0001
1000
0100
0010
,
1000
0001
0010
0100
,
1001
1001
0001
1000
,
0010
0001
0100
0010
,
0001
1000
0100
0010
,
1000
0001
0010
0100
,
1000
0001
0010
0100
,
0001
0010
0010
1000
,
0011
0100
1001
0100
,
1001
0100
0010
0001
,
1001
0010
1010
0101
,
1000
0001
0100
0010
,
0101
1000
0010
0001
,
1010
0101
0010
0100
,
1001
0001
1010
0010
,
1000
0001
0100
0001
,
0101
1000
0010
1000
,
0101
0000
1000
0010
,
1001
0010
0100
0000
,
1010
0001
0100
1000
,
0101
1000
0010
0001
,
1001
1001
0010
1000
,
0001
1000
0101
0010
,
1000
0001
0100
0000
,
0202
0303
1010
0010
,
2000
3001
0110
1001
,
0010
0010
0101
0010
,
1000
0011
0100
0010
,
1000
0001
0100
0001
,
1010
0010
1001
0010
,
1000
0000
0000
0000
;
