#TITLE:SpongeBob Squarepants Theme;
#SUBTITLE:;
#ARTIST:Painty the Pirate & the Bikini Bottom Kids;
#TITLETRANSLIT:;
#SUBTITLETRANSLIT:;
#ARTISTTRANSLIT:;
#GENRE:All Music;
#CREDIT:;
#BANNER:;
#BACKGROUND:sponge.png;
#LYRICSPATH:;
#CDTITLE:;
#MUSIC:./sponge.mp3;
#OFFSET:-0.220000;
#SAMPLESTART:0.220000;
#SAMPLELENGTH:12.000000;
#SELECTABLE:YES;
#BPMS:0.000000=122.000000
;
#STOPS:
;
#BGCHANGES:;
#KEYSOUNDS:;
#ATTACKS:;

//---------------dance-single - ----------------
#NOTES:
     dance-single:
     :
     Easy:
     4:
     0.186327,0.211089,0.000000,0.068647,0.000000,57.000000,57.000000,0.000000,3.000000,0.000000,0.000000,0.186327,0.211089,0.000000,0.068647,0.000000,57.000000,57.000000,0.000000,3.000000,0.000000,0.000000:
// measure 0
0000
0000
0000
1000
,  // measure 1
0000
0000
0000
0100
,  // measure 2
0010
0000
0000
0000
,  // measure 3
0000
0100
0100
0010
,  // measure 4
0000
2000
0000
0000
,  // measure 5
0000
0000
0000
3000
,  // measure 6
1000
1000
0010
0010
,  // measure 7
0010
0001
0001
0100
,  // measure 8
0010
0100
0010
1000
,  // measure 9
0001
1000
0001
0100
,  // measure 10
0100
0100
0010
0010
,  // measure 11
0010
1000
1000
1000
,  // measure 12
0010
1000
0100
0001
,  // measure 13
0010
0100
0001
0001
,  // measure 14
0001
0001
0001
0100
,  // measure 15
0100
0100
0100
1000
,  // measure 16
1000
1000
1000
1000
,  // measure 17
0020
0000
0030
1000
,  // measure 18
0200
0000
0000
0000
,  // measure 19
0300
0000
0000
0000
,  // measure 20
0100
0100
0100
0000
;

//---------------dance-single - ----------------
#NOTES:
     dance-single:
     :
     Medium:
     4:
     0.241898,0.291892,0.114411,0.000000,0.000000,74.000000,69.000000,5.000000,0.000000,0.000000,0.000000,0.241898,0.291892,0.114411,0.000000,0.000000,74.000000,69.000000,5.000000,0.000000,0.000000,0.000000:
0000
0000
0000
0000
,
0000
0000
0000
0000
0001
0001
0000
1000
,
0000
1000
0000
0000
0000
0000
0000
0000
,
0010
0000
0010
0100
0000
0100
0000
0000
,
0000
0010
0000
0000
0000
0000
0000
0000
,
0000
0000
0000
0000
0001
0001
0000
1000
,
0000
1000
0000
0100
0000
0010
0000
0100
,
0010
0000
0001
1000
0001
1000
0000
0110
,
0000
0110
0000
0001
0000
1000
0001
0000
,
1000
0100
0100
0010
,
0010
0000
0001
1000
0000
0001
0000
1000
,
0000
0100
0000
0100
0000
0010
0000
0010
,
0000
0001
1000
1001
0000
0110
0000
0110
,
0000
0001
0000
1000
0000
0001
0000
1000
,
0000
0001
1000
0000
0001
0000
1000
0000
,
0001
1000
0001
1000
,
0100
0000
0100
0000
0000
0000
0010
0010
,
0000
0000
0000
0000
,
0100
0100
0000
0001
0000
0000
1000
0001
,
0000
0001
0000
0001
0001
1000
0000
0000
;

//---------------dance-single - ----------------
#NOTES:
     dance-single:
     :
     Hard:
     9:
     0.356309,0.426611,0.434763,0.022882,0.000000,109.000000,90.000000,19.000000,1.000000,0.000000,0.000000,0.356309,0.426611,0.434763,0.022882,0.000000,109.000000,90.000000,19.000000,1.000000,0.000000,0.000000:
0000
0000
0000
0001
,
1000
1000
0010
0100
0000
0001
1000
0000
,
0010
0000
0000
0001
0001
1000
0100
0000
,
0001
0000
0001
1000
0000
0100
0000
0000
,
0000
0002
0000
0000
0000
0000
0000
0000
,
0000
0000
0000
0003
1000
0100
0011
1000
,
0100
0011
0000
0000
1000
0000
0100
0010
,
0000
0001
0000
1100
0010
1001
0100
0011
,
1000
0110
0000
0001
0000
0001
0000
1000
,
0000
1000
0110
0001
1000
0110
0001
1100
,
0010
0001
0000
1000
1000
0000
0001
0000
,
0001
0000
0110
1000
0011
0000
1100
0101
,
0010
0001
0001
1000
,
1000
0000
0001
0100
0000
0010
0000
0001
,
0000
1000
0000
0100
0000
0010
0000
0001
,
0000
1000
0000
0100
0001
0000
0010
0000
,
0100
1001
0000
0100
,
0010
0000
0000
0000
0000
0000
0001
0001
,
0000
1000
0001
0000
1001
0001
1001
1001
,
1001
1001
1000
0001
1000
0001
0000
0000
;
