#VERSION:0.83;
#TITLE:Grass Skirt Chase;
#SUBTITLE:spongebob chase music;
#ARTIST:Sage Guyton, Jeremy Wakefield;
#TITLETRANSLIT:;
#SUBTITLETRANSLIT:;
#ARTISTTRANSLIT:;
#GENRE:;
#ORIGIN:;
#CREDIT:;
#BANNER:2.png;
#BACKGROUND:1.jpg;
#PREVIEWVID:;
#JACKET:;
#CDIMAGE:;
#DISCIMAGE:;
#LYRICSPATH:;
#CDTITLE:cd.png;
#MUSIC:SB Music_ Grass Skirt Chase.mp3;
#OFFSET:-1.259000;
#SAMPLESTART:4.574000;
#SAMPLELENGTH:24.490999;
#SELECTABLE:YES;
#DISPLAYBPM:140.000000;
#BPMS:0.000=146.401,
1.000=141.000,
3.000=137.000,
5.000=140.000,
8.000=150.000,
12.000=152.000,
16.000=148.140,
20.000=146.000,
24.000=148.840,
28.000=155.000,
30.000=150.000,
32.000=144.000,
34.000=153.000,
35.000=146.000,
36.000=142.000,
38.000=144.000,
39.000=147.000,
41.000=152.000,
43.000=143.000,
45.000=150.000,
46.000=152.000,
47.000=142.000,
48.000=148.000,
51.000=154.000,
54.000=149.000,
56.000=147.000,
58.000=150.000,
60.000=152.000,
61.000=142.000,
63.000=136.000,
64.000=146.070,
65.000=140.000,
66.000=141.000,
67.000=136.000,
68.000=262.000,
70.000=282.000,
71.000=259.000,
72.000=315.000,
73.000=19.688;
#STOPS:;
#DELAYS:;
#WARPS:;
#TIMESIGNATURES:0.000=4=4;
#TICKCOUNTS:0.000=4;
#COMBOS:0.000=1;
#SPEEDS:0.000=1.000=0.000=0;
#SCROLLS:0.000=1.000;
#FAKES:;
#LABELS:0.000=Song Start;
#BGCHANGES:;
#KEYSOUNDS:;
#ATTACKS:
;

//---------------dance-single - ----------------
#NOTEDATA:;
#CHARTNAME:;
#STEPSTYPE:dance-single;
#DESCRIPTION:;
#CHARTSTYLE:;
#DIFFICULTY:Beginner;
#METER:1;
#RADARVALUES:2.090281,1.809100,2.205965,0.000000,4.314196,524.000000,445.000000,79.000000,0.000000,0.000000,0.000000,0.000000,0.000000,0.000000,2.090281,1.809100,2.205965,0.000000,4.314196,524.000000,445.000000,79.000000,0.000000,0.000000,0.000000,0.000000,0.000000,0.000000;
#CREDIT:;
#DISPLAYBPM:140.000000;
#NOTES:
0010
0000
0000
0000
0100
0000
0000
0000
0010
0000
0000
0000
0100
0000
0000
0010
0000
0000
0001
0000
0000
1000
0000
0000
0100
0000
0010
0001
0000
0000
1000
0000
0000
0100
0000
0000
0010
0000
0000
0000
0000
0000
0000
0000
0000
0000
0000
0000
0100
0000
0000
0000
0010
0000
0000
0000
0100
0000
0000
0000
0010
0000
0000
0100
0000
0000
1000
0000
0000
0001
0000
0000
0010
0000
0100
1000
0000
0000
0001
0000
0000
0010
0000
0000
0100
0000
0000
0000
0000
0000
0000
0000
0000
0000
0000
0000
,
0010
0000
0000
0000
0100
0000
0000
0000
0010
0000
0000
0000
0100
0000
0000
0010
0000
0000
0001
0000
0000
1000
0000
0000
0100
0000
0010
0001
0000
0000
1000
0000
0000
0100
0000
0000
0010
0000
0000
0000
0000
0000
0000
0000
0000
0000
0000
0000
1100
0000
0000
0010
0000
0000
1100
0000
0000
0010
0000
0000
1100
0000
0000
0011
0000
0000
1100
0000
0000
0011
0000
0000
1100
0000
0000
0011
0000
0000
1100
0000
0000
0011
0000
0000
0000
0000
0000
0000
0000
0000
0000
0000
1000
0000
0000
0000
,
0110
0000
0000
0001
0000
0000
1000
0000
0000
0100
0000
0000
0010
0000
0000
0000
0000
0000
0000
0000
0100
0000
0000
0000
1010
0000
0000
0001
0000
0000
0100
0000
0000
0010
0000
0000
1000
0000
0000
0000
0000
0000
0000
0000
0010
0000
0000
0000
0101
0000
0000
1000
0000
0000
0010
0000
0000
0100
0000
0000
0001
0000
0000
0000
0000
0000
0000
0000
0001
0000
0000
0000
0110
0000
0000
0001
0000
0000
1000
0000
0000
0010
0000
0000
0100
0000
0000
0000
0000
0000
0100
0000
0000
0000
0000
0000
,
1000
0000
0000
0000
0100
0000
0000
0000
0001
0000
0000
0000
0000
0000
0000
0000
0000
0000
0000
0000
0100
0000
0000
0000
1000
0000
0000
0000
0000
0000
0000
0000
0010
0000
0000
0000
0000
0000
0000
0000
0000
0000
0000
0000
0000
0000
0000
0000
0100
0000
0000
0000
0010
0000
0000
0000
1000
0000
0000
0000
0000
0000
0000
0000
0000
0000
0000
0000
0000
0000
0000
0000
0010
0000
0000
0000
0001
0000
0000
0000
0100
0000
0000
0000
0000
0000
0000
0000
0000
0000
0000
0000
0000
0000
0000
0000
0011
0000
0000
0000
0000
0000
0000
0000
0100
0000
0000
0000
0000
0000
0000
0000
0010
0000
0000
0000
0000
0000
0000
0000
0100
0000
0000
0000
0000
0000
0000
0000
0010
0000
0000
0000
0000
0000
0000
0000
0100
0000
0000
0000
0000
0000
0000
0000
1001
0000
0000
0000
0000
0000
0000
0000
0000
0000
0000
0000
0000
0000
0000
0000
0100
0000
0000
0000
0000
0000
0000
0000
0001
0000
0000
0010
0000
0000
0000
0000
0000
0000
0000
0000
0001
0000
0000
0000
0000
0000
0000
0000
0000
0000
0000
0000
,
1100
0000
0000
0010
0000
0000
1000
0000
0000
0100
0000
0000
0001
0000
0010
0100
0000
0000
0001
0000
0000
0010
0000
0000
0100
0000
1000
0000
0000
0000
0000
0000
0000
0000
0000
0000
0011
0000
0000
0000
0000
0000
0011
0000
0000
0000
0000
0000
1100
0000
0000
0010
0000
0000
1000
0000
0000
0100
0000
0000
0001
0000
0010
0100
0000
0000
0001
0000
0000
0010
0000
0000
0100
0000
1000
0000
0000
0000
0000
0000
0000
0000
0000
0000
0011
0000
0000
0000
0000
0000
0011
0000
0000
0000
0000
0000
,
1100
0000
0000
0001
0000
0000
0010
0000
0000
1000
0000
0000
0101
0000
0000
0000
0000
0000
0001
0000
0000
0000
0000
0000
1100
0000
0000
0010
0000
0000
0001
0000
0000
1000
0000
0000
0101
0000
0000
0000
0000
0000
0100
0000
0000
0000
0000
0000
1001
0000
0000
0010
0000
0000
0100
0000
0000
0001
0000
0000
1010
0000
0000
0000
0000
0000
0010
0000
0000
0000
0000
0000
0110
0000
0000
0001
1000
0000
0000
0000
0010
0000
0000
0000
1001
0000
0000
0000
0100
0000
0000
0000
0001
0000
0000
0000
,
0110
0000
0000
1000
0000
0000
0001
0000
0000
0010
0000
0000
0100
0000
0000
0000
0000
0000
0000
0000
0010
0000
0000
0000
0101
0000
0000
1000
0000
0000
0010
0000
0000
0100
0000
0000
0001
0000
0000
0000
0000
0000
0000
0000
0100
0000
0000
0000
1010
0000
0000
0001
0000
0000
0100
0000
0000
0010
0000
0000
1000
0000
0000
0000
0000
0000
0000
0000
1000
0000
0000
0000
0110
0000
0000
1000
0000
0000
0001
0000
0000
0100
0000
0000
0010
0000
0000
0000
0000
0000
0010
0000
0000
0000
0000
0000
,
0001
0010
1000
0000
0000
0010
0001
0000
0100
0000
0000
0000
0010
0100
0001
0000
0000
0000
0100
1000
0010
0000
0000
0000
1100
0000
0010
0000
0100
0000
0010
0000
0100
0000
0010
0000
1001
0000
0100
0000
1000
0000
0010
0000
0100
0000
0010
0000
,
1001
0000
0000
0100
0000
0000
0001
0000
0000
0010
0000
0000
1000
0000
0100
0010
0000
0000
1000
0000
0000
0100
0000
0000
0010
0000
0000
0000
0100
0000
0000
0000
0010
0000
0000
0000
1100
0000
0000
0000
0000
0000
1000
0000
0000
0000
0000
0000
0011
0000
0000
0100
0000
0000
0001
0000
0000
0010
0000
0000
1000
0000
0100
0010
0000
0000
1000
0000
0000
0001
0000
0000
0010
0000
0000
0000
0100
0000
0000
0000
0010
0000
0000
0000
1100
0000
0000
0010
0000
0000
0100
0000
0000
1000
0000
0000
,
0011
0000
0000
0100
0000
0000
0010
0000
0000
0001
0000
0000
1100
0000
0000
0000
0000
0000
1000
0000
0000
0000
0000
0000
0011
0000
0000
0000
0100
0000
0000
0000
0010
0000
0000
0000
1100
0000
0000
0010
0000
0000
1000
0000
0000
0000
0000
0000
0011
0000
0000
0100
0000
0000
0010
0000
0000
1000
0000
0000
0001
0000
0000
0000
0010
0000
0000
0000
0001
0000
0000
0000
0110
0000
0000
1000
0001
0000
0000
0000
0100
0000
0000
0000
0011
0000
0000
0000
1000
0000
0000
0000
0100
0000
0000
0000
,
0011
0000
0000
0000
0100
0000
0000
0000
0010
0000
0000
0000
1001
0000
0000
0000
0100
0000
0001
0000
0010
0000
0000
0000
1001
0000
0000
0000
0100
0000
0000
0000
0010
0000
0000
0000
1001
0000
0000
0000
0100
0000
1000
0000
0000
0000
0000
0000
0110
0000
0000
1000
0000
0000
0001
0000
0000
0100
0000
0000
0010
0000
0000
0001
0000
0000
1000
0000
0000
0100
0000
0000
0011
0000
0000
0000
0100
0000
0000
0000
1000
0000
0000
0000
0011
0000
0000
0000
0000
0000
0001
0000
0000
0000
0000
0000
,
1100
0000
0000
0010
0000
0000
0001
0000
0000
1000
0000
0000
0001
0000
0000
0100
0000
0000
0010
0000
0000
0001
0000
0000
1100
0000
0000
0010
0000
0000
0001
0000
0000
1000
0000
0000
0100
0000
0010
0000
0001
0000
1000
0000
0000
0000
0000
0000
0110
0000
0000
0001
0000
0000
1000
0000
0000
0100
0000
0000
0010
0000
0000
1000
0000
0000
0001
0000
0000
0010
0000
0000
1100
0000
0000
0001
0000
0000
0010
0000
0100
0000
0000
0000
1000
0000
0000
0000
0000
0000
0000
0000
1000
0000
0000
0000
,
0011
0000
0000
0000
0100
0000
0000
0000
0010
0000
0000
0000
0100
0000
0000
0000
0000
0000
0000
0000
0010
0001
0000
0000
1100
0000
0000
0010
0000
0000
0001
0000
0000
1000
0000
0000
0100
0000
0000
0000
0000
0000
0001
0000
0010
0000
0000
0000
1100
0000
0000
0010
0000
0000
0001
0000
0000
1000
0000
0000
0100
0000
0000
1000
0000
0000
0010
0000
0100
0000
0000
0000
1001
0000
0000
0010
0000
0000
0100
0000
0000
0001
0000
0000
0010
0000
0000
0000
0000
0000
0010
0000
0100
0000
0000
0000
,
1001
0000
0000
0100
0010
0000
0000
0000
0001
0000
0000
0000
0100
0000
0000
0001
0010
0000
0000
0000
1000
0000
0000
0000
0110
0000
0000
0000
0001
0000
0100
0000
1000
0000
0000
0000
0010
0000
0000
0100
1000
0000
0000
0000
0001
0000
0000
0000
1100
0000
0000
0000
0010
0000
0000
0000
0100
0000
0000
0000
0010
0000
0000
0000
0100
0000
0000
0000
0010
0000
0000
0000
1100
0000
0000
0000
0000
0000
0000
0000
0100
0000
0000
0000
1000
0000
0000
0000
0000
0000
1000
0000
0000
0000
0000
0000
,
0110
0000
0000
0001
0000
0000
1000
0000
0100
0000
0000
0000
0000
0000
0000
0000
0000
0000
0000
0000
0010
0000
0000
0000
1100
0000
0000
0010
0001
0000
0000
0000
1000
0000
0000
0000
0101
0000
0000
0000
0000
0000
0010
0000
0000
0000
0000
0000
1001
0000
0100
0010
0000
0000
0000
0000
0001
0000
0000
0000
0100
0000
0000
0000
0000
0000
0100
0000
0000
0000
0000
0000
0011
0000
1000
0100
0000
0000
0010
0000
0000
0000
0000
0000
1000
0000
0000
0000
0000
0000
1100
0000
0000
0000
0000
0000
,
0011
0000
0000
0000
0000
0000
1000
0000
0100
0000
0000
0000
0000
0000
0000
0000
0000
0000
0000
0000
0000
0000
0000
0000
0010
0000
0000
0000
0100
0000
1000
0000
0000
0000
0000
0000
0001
0000
0000
0000
0000
0000
0000
0000
0000
0000
0000
0000
1000
0000
0000
0000
0100
0000
0010
0000
0000
0000
0000
0000
1000
0000
0000
0000
0000
0000
0000
0000
0000
0000
0000
0000
0100
0000
0000
0000
0010
0000
0001
0000
0000
0000
0000
0000
1000
0000
0000
0000
0000
0000
0000
0000
0000
0000
0000
0000
0001
0000
0000
0010
0000
0000
0100
0000
0000
1000
0000
0000
0000
0000
0000
0000
0000
0000
0000
0000
0000
0000
0000
0000
0000
0000
0000
0000
0000
0000
0000
0000
0000
0000
0000
0000
0000
0000
0000
0000
0000
0000
0000
0000
0000
0000
0000
0000
1000
0000
0000
0100
0000
0000
0010
0000
0000
0001
0000
0000
0000
0000
0000
0000
0000
0000
0000
0000
0000
0000
0000
0000
0000
0000
0000
0000
0000
0000
0000
0000
0000
0000
0000
0000
0000
0000
0000
0000
0000
0000
0000
0000
0000
0000
0000
0000
,
1000
0000
0000
0100
0000
0000
0010
0000
0000
0001
0000
0000
0000
0000
0000
0000
0100
0000
0000
0000
0000
0000
0000
0000
0010
0000
0000
0000
0000
0000
0100
0000
0000
0000
0000
0000
1000
0000
0000
0000
0000
0000
0001
0000
0000
0000
0000
0000
0010
0000
0000
0000
0100
0000
1000
0000
0000
0000
0000
0000
0001
0000
0000
0000
0000
0000
0010
0000
0000
0000
0000
0000
0100
0000
0000
0000
0000
0000
0000
0000
0000
0000
0000
0000
0000
0000
0000
0000
0000
0000
0000
0000
0000
0000
0000
0000
0001
0000
0000
0010
0000
0000
0000
0000
0000
0000
0000
0000
0000
0000
0000
0000
0000
0000
0000
0000
0000
0000
0000
0000
0000
0000
0000
0000
0000
0000
0000
0000
0000
0000
0000
0000
0000
0000
0000
0000
0000
0000
0000
0000
0000
0000
0000
0000
0001
0000
0000
0010
0000
0000
0000
0000
0000
0000
0000
0000
0000
0000
0000
0000
0000
0000
0000
0000
0000
0000
0000
0000
0000
0000
0000
0000
0000
0000
0000
0000
0000
0000
0000
0000
0000
0000
0000
0000
0000
0000
0000
0000
0000
0000
0000
0000
,
1100
0010
0001
1100
0010
0001
1100
0010
0001
1100
0010
0001
,
1100
0010
0001
1100
0000
0000
0000
0000
0000
0000
0000
0000
;

//---------------dance-single - ----------------
#NOTEDATA:;
#CHARTNAME:;
#STEPSTYPE:dance-single;
#DESCRIPTION:;
#CHARTSTYLE:;
#DIFFICULTY:Easy;
#METER:1;
#RADARVALUES:0.211422,0.219898,0.000000,0.335083,0.000000,53.000000,53.000000,0.000000,12.000000,0.000000,0.000000,0.000000,0.000000,0.000000,0.211422,0.219898,0.000000,0.335083,0.000000,53.000000,53.000000,0.000000,12.000000,0.000000,0.000000,0.000000,0.000000,0.000000;
#CREDIT:;
#DISPLAYBPM:140.000000;
#NOTES:
// measure 0
0010
0010
0100
0100
,  // measure 1
0010
0100
0200
0000
,  // measure 2
0300
0010
0001
0010
,  // measure 3
0100
0010
0002
0003
,  // measure 4
0010
0100
0001
0010
,  // measure 5
0100
1000
0100
0010
,  // measure 6
0001
0010
0100
1000
,  // measure 7
0010
0100
0020
0030
,  // measure 8
1000
0000
1000
0000
,  // measure 9
1000
2000
0000
3000
,  // measure 10
2000
3000
0200
0300
,  // measure 11
0020
0000
0030
0000
,  // measure 12
0100
0100
1000
0010
,  // measure 13
1000
0001
0010
0000
,  // measure 14
0001
0010
1000
0010
,  // measure 15
0100
0100
2000
3200
,  // measure 16
0320
0030
2000
3000
,  // measure 17
0002
0000
0003
0000
;
