#VERSION:0.83;
#TITLE:onlymp3.to - Speed Me Up-7S5F-VpjJ6s-192k-1696866356;
#SUBTITLE:;
#ARTIST:Dancing Monkeys Project;
#TITLETRANSLIT:;
#SUBTITLETRANSLIT:;
#ARTISTTRANSLIT:;
#GENRE:;
#ORIGIN:;
#CREDIT:Gorilla v1.1.3 (Dancing Monkeys v1.06);
#BANNER:;
#BACKGROUND:Film-facts-Sonic-the-Hedgehog-2-1-1024x576.png;
#PREVIEWVID:;
#JACKET:;
#CDIMAGE:;
#DISCIMAGE:;
#LYRICSPATH:;
#CDTITLE:;
#MUSIC:onlymp3.to - Speed Me Up-7S5F-VpjJ6s-192k-1696866356.mp3;
#OFFSET:-1.600000;
#SAMPLESTART:41.604164;
#SAMPLELENGTH:12.000000;
#SELECTABLE:YES;
#BPMS:0.000=149.984;
#STOPS:;
#DELAYS:;
#WARPS:;
#TIMESIGNATURES:0.000=4=4;
#TICKCOUNTS:0.000=4;
#COMBOS:0.000=1;
#SPEEDS:0.000=1.500=0.000=0;
#SCROLLS:0.000=1.000;
#FAKES:;
#LABELS:0.000=Song Start;
#BGCHANGES:;
#KEYSOUNDS:;
#ATTACKS:
;

//---------------dance-single - Basic----------------
#NOTEDATA:;
#CHARTNAME:Basic;
#STEPSTYPE:dance-single;
#DESCRIPTION:Basic;
#CHARTSTYLE:;
#DIFFICULTY:Easy;
#METER:6;
#RADARVALUES:0.337158,0.275147,0.000000,0.000000,0.000000,248.000000,248.000000,0.000000,0.000000,0.000000,0.000000,0.000000,0.000000,0.000000,0.337158,0.275147,0.000000,0.000000,0.000000,248.000000,248.000000,0.000000,0.000000,0.000000,0.000000,0.000000,0.000000,0.000000;
#CREDIT:Basic;
#NOTES:
// measure 0
1000
0001
0000
0000
,  // measure 1
1000
0000
0000
0001
0000
0000
0000
0000
,  // measure 2
1000
0000
0001
0000
,  // measure 3
1000
1000
0001
0000
,  // measure 4
1000
1000
0001
0000
,  // measure 5
1000
1000
0001
0000
,  // measure 6
1000
1000
0001
0000
,  // measure 7
1000
1000
0001
0100
,  // measure 8
0001
0001
1000
0010
,  // measure 9
1000
0100
0001
0100
,  // measure 10
1000
0001
0100
0010
,  // measure 11
0001
0010
0100
0010
,  // measure 12
1000
0010
1000
1000
,  // measure 13
0001
0010
0100
0010
,  // measure 14
0001
1000
0100
0100
,  // measure 15
1000
0010
1000
1000
,  // measure 16
1000
0100
1000
1000
,  // measure 17
0001
0010
0100
0010
,  // measure 18
1000
1000
0001
0100
,  // measure 19
0010
1000
0100
0010
,  // measure 20
1000
0001
0100
0100
,  // measure 21
0010
1000
0010
0100
,  // measure 22
0010
0001
0010
0010
,  // measure 23
0100
0001
1000
0010
,  // measure 24
0100
0001
0100
0100
,  // measure 25
0001
0001
0010
0010
,  // measure 26
1000
1000
0010
0010
,  // measure 27
1000
0001
0010
0010
,  // measure 28
0100
0001
0100
0010
,  // measure 29
1000
0001
0010
0100
,  // measure 30
0001
0010
1000
0001
,  // measure 31
1000
0001
0010
1000
,  // measure 32
0100
0001
1000
0100
,  // measure 33
0001
1000
0100
0010
,  // measure 34
0001
1000
0010
0001
,  // measure 35
1000
0010
1000
0100
,  // measure 36
0001
1000
0010
0001
,  // measure 37
1000
0100
0001
0100
,  // measure 38
0001
0010
1000
0001
,  // measure 39
1000
0100
0001
1000
,  // measure 40
0010
0001
1000
0100
,  // measure 41
0001
0010
1000
0010
,  // measure 42
0001
0100
1000
0010
,  // measure 43
0001
0100
1000
0010
,  // measure 44
0001
1000
0010
1000
,  // measure 45
0001
0100
0010
0100
,  // measure 46
0001
1000
0010
1000
,  // measure 47
0001
0100
0010
0001
,  // measure 48
1000
0010
0100
1000
,  // measure 49
0001
0100
0010
0001
,  // measure 50
0010
1000
0100
0010
,  // measure 51
0001
0100
0010
1000
,  // measure 52
0001
0100
0010
0001
,  // measure 53
1000
0010
1000
0001
,  // measure 54
1000
0010
1000
0100
,  // measure 55
0001
0010
1000
0010
,  // measure 56
0001
0010
0100
0010
,  // measure 57
1000
0010
0001
1000
,  // measure 58
0001
0100
0001
0001
,  // measure 59
1000
0100
1000
0001
,  // measure 60
0100
0010
0001
1000
,  // measure 61
0100
0001
0010
1000
,  // measure 62
0100
0010
0100
0001
,  // measure 63
1000
0001
1000
0001
,  // measure 64
1000
0100
0000
0000
;

//---------------dance-single - Standard----------------
#NOTEDATA:;
#CHARTNAME:Standard;
#STEPSTYPE:dance-single;
#DESCRIPTION:Standard;
#CHARTSTYLE:;
#DIFFICULTY:Medium;
#METER:7;
#RADARVALUES:0.418729,0.479635,0.256947,0.000000,0.000000,308.000000,281.000000,27.000000,0.000000,0.000000,0.000000,0.000000,0.000000,0.000000,0.418729,0.479635,0.256947,0.000000,0.000000,308.000000,281.000000,27.000000,0.000000,0.000000,0.000000,0.000000,0.000000,0.000000;
#CREDIT:Standard;
#NOTES:
1000
0000
0000
0000
0000
0000
0000
0000
,
0001
0000
0000
0000
0000
0000
0000
0000
,
1000
0000
0000
0000
0000
0000
0000
0000
,
1000
0000
1000
0000
0001
0000
0000
0000
,
0001
0000
0001
0000
1000
0000
0000
0000
,
1000
0000
1000
0000
0001
0000
0000
0000
,
1000
0000
1000
0000
0001
0000
0000
0000
,
0001
0000
0001
0000
1000
0000
0000
0000
,
1000
0000
1000
0000
0001
0000
0000
0000
,
1000
0000
0000
0000
0000
0000
0000
0000
,
1000
0000
0000
0000
0000
0000
0000
0000
,
1000
0010
0100
0000
0001
0000
0010
0001
,
0001
0000
1000
0000
0010
0100
0100
0000
,
1000
0010
0100
0000
0001
0000
0010
0001
,
0001
0000
0010
0001
1000
0000
1000
0010
,
0001
0000
1000
0000
0010
0100
0100
0000
,
0001
0000
1000
0000
0010
0100
0100
0000
,
1000
0010
0100
0000
0001
0000
0010
0001
,
1000
0000
1000
0000
0001
0000
0000
0000
,
1010
0000
0010
0100
0010
0100
1000
0000
,
1001
0000
0100
0010
0100
0000
0011
0000
,
1001
0000
0100
0010
0100
0000
1010
0000
,
1010
0000
0010
0100
0010
0100
1000
0000
,
1010
0000
0010
0100
0010
1000
0010
0000
,
1001
0000
0100
0010
0100
0000
0011
0000
,
1001
0000
0100
0010
0100
0000
1010
0000
,
1001
0000
0100
0010
0100
0000
1010
0000
,
1010
0000
0010
0100
0010
0100
1000
0000
,
1001
0000
0100
0010
0100
0000
0011
0000
,
1010
0000
0010
0100
0010
0100
1000
0000
,
0011
0000
0100
1000
0000
0000
0011
0000
,
1010
0000
0010
0100
0010
0100
1000
0000
,
1001
0000
0100
0010
0100
0000
0011
0000
,
1001
0000
0010
0100
0010
0000
1100
0000
,
1001
0000
0100
0010
0100
0000
0011
0000
,
0001
0000
1000
0000
0010
0100
0100
0000
,
0001
0000
0100
0000
0010
0000
0000
0000
,
1000
0000
1000
0000
0001
0000
0000
0000
,
1000
0000
1000
0000
0001
0000
0000
0000
,
0001
0000
0001
0000
1000
0000
0000
0000
,
0001
0000
0001
0000
1000
0000
0000
0000
,
1000
0000
1000
0000
0001
0000
0000
0000
,
0001
0000
0001
0000
1000
0000
0000
0000
,
1000
0000
1000
0000
0001
0000
0000
0000
,
0001
0000
0100
0000
0010
0000
0000
0000
,
0001
0010
0100
0000
0010
0000
0100
1000
,
1000
0000
0010
0000
1000
0010
0100
0100
,
0001
0010
0100
0000
0010
0000
0100
1000
,
1000
1000
0100
0010
0100
1000
0010
0000
,
0001
0010
0100
0000
0010
0000
0100
1000
,
1000
0000
0010
0000
1000
0010
0100
0100
,
0001
0010
0100
0000
0010
0000
0100
1000
,
0001
0100
0010
0100
0100
0000
0000
0000
,
0001
0000
1000
0000
0010
0100
0100
0000
,
1000
0000
0001
0000
0010
0100
0100
0000
,
1000
0000
0001
0000
0100
0010
0010
0000
,
1000
0010
0100
0000
0001
0000
0010
0001
,
0001
0000
1000
0000
0010
0100
0100
0000
,
0001
0000
1000
0000
0010
0100
0100
0000
,
1000
0000
0001
0000
0010
0100
0100
0000
,
1000
0000
0000
0000
0000
0000
0010
0000
,
1010
0000
0010
0100
0010
0100
1000
0010
,
1000
0000
0100
0010
0000
0001
0100
0000
,
1000
0000
0000
0000
0000
0000
0000
0000
,
;

//---------------dance-single - Heavy----------------
#NOTEDATA:;
#CHARTNAME:Heavy;
#STEPSTYPE:dance-single;
#DESCRIPTION:Heavy;
#CHARTSTYLE:;
#DIFFICULTY:Hard;
#METER:8;
#RADARVALUES:0.504378,0.511634,0.256947,0.000000,0.000000,371.000000,344.000000,27.000000,0.000000,0.000000,0.000000,0.000000,0.000000,0.000000,0.504378,0.511634,0.256947,0.000000,0.000000,371.000000,344.000000,27.000000,0.000000,0.000000,0.000000,0.000000,0.000000,0.000000;
#CREDIT:Heavy;
#NOTES:
0001
0000
0001
0000
0000
0000
0000
0000
,
0001
0000
0001
0000
0000
0000
0000
0000
,
1000
0000
1000
0000
0000
0000
0000
0000
,
1000
0000
1000
0000
0001
0000
0010
0000
,
1000
0000
1000
0000
0001
0000
0100
0000
,
1000
0000
1000
0000
0001
0000
0010
0000
,
1000
0000
1000
0000
0001
0000
0100
0000
,
1000
0000
1000
0000
0001
0000
0100
0000
,
1000
0000
1000
0000
0001
0000
0010
0000
,
0001
0000
0001
0000
0000
0000
0000
0000
,
0001
0000
0001
0000
0000
0000
0000
0000
,
1000
0001
0100
0100
0010
1000
0001
1000
,
0001
0100
0001
0000
0100
0010
0010
0100
,
1000
0001
0100
0100
0010
1000
0001
1000
,
1000
0001
0010
0100
0010
0100
0100
1000
,
0001
0100
0001
0000
0100
0010
0010
0100
,
0001
0010
0001
0000
0010
0100
0100
0010
,
1000
0001
0100
0100
0010
1000
0001
1000
,
1000
0000
1000
0000
0001
0000
0010
0000
,
0101
0000
0100
0010
1000
0010
0100
0000
,
1001
0000
0100
1000
0010
0000
0011
0000
,
1001
0000
0100
1000
0010
0000
0011
0000
,
0101
0000
0100
0010
1000
0010
0100
0000
,
1010
0000
0100
0001
1000
0010
0100
0000
,
1001
0000
0100
1000
0010
0000
0011
0000
,
1001
0000
0100
0001
0010
0000
1010
0000
,
1001
0000
0100
1000
0010
0000
0011
0000
,
0101
0000
0100
0010
1000
0010
0100
0000
,
1001
0000
0100
1000
0010
0000
0011
0000
,
0101
0000
0100
0010
1000
0010
0100
0000
,
1010
0000
0010
0001
0000
0000
1100
0000
,
0101
0000
0100
0010
1000
0010
0100
0000
,
1001
0000
0100
1000
0010
0000
0011
0000
,
1001
0000
0100
1000
0010
0000
0011
0000
,
1001
0000
0010
0001
0100
0000
1100
0000
,
0001
0100
0001
0000
0100
0010
0010
0100
,
1000
0010
0100
0010
0000
0000
0000
0000
,
1000
0000
1000
0000
0001
0000
0010
0000
,
1000
0000
1000
0000
0001
0000
0100
0000
,
1000
0000
1000
0000
0001
0000
0010
0000
,
1000
0000
1000
0000
0001
0000
0100
0000
,
1000
0000
1000
0000
0001
0000
0100
0000
,
1000
0000
1000
0000
0001
0000
0100
0000
,
1000
0000
1000
0000
0001
0000
0100
0000
,
1000
0010
0100
0010
0000
0000
0000
0000
,
0001
0100
0001
0001
1000
0000
0100
1000
,
1000
0000
0100
1000
0001
0100
0001
0001
,
0001
0100
0001
0001
1000
0000
0100
1000
,
0001
0001
0100
0001
1000
0010
1000
0001
,
0001
0100
0001
0001
1000
0000
0100
1000
,
1000
0000
0100
1000
0001
0100
0001
0001
,
0001
0100
0001
0001
1000
0000
0100
1000
,
1000
0100
0010
0100
0100
0000
0010
0000
,
0001
0100
0001
0000
0100
0010
0010
0100
,
1000
0010
1000
0000
0010
0100
0100
0010
,
1000
0010
1000
0000
0010
0100
0100
0010
,
1000
0001
0100
0100
0010
1000
0001
1000
,
0001
0100
0001
0000
0100
0010
0010
0100
,
1000
0100
1000
0000
0100
0010
0010
0100
,
0001
0010
0001
0000
0010
0100
0100
0010
,
0001
0000
0000
0000
0000
0010
0100
0000
,
0101
0000
0100
0010
1000
0010
0100
0001
,
0001
0010
1000
0010
0001
0010
0100
0000
,
0001
0000
0001
0000
0000
0000
0000
0000
,
;
