#TITLE:The Spectacular Spider-Man - Opening Theme FULL VER. Cover by We.B;
#SUBTITLE:;
#ARTIST:Dancing Monkeys Project;
#TITLETRANSLIT:;
#SUBTITLETRANSLIT:;
#ARTISTTRANSLIT:;
#GENRE:;
#CREDIT:Gorilla v1.1.3 (Dancing Monkeys v1.06);
#BANNER:72s9l.png;
#BACKGROUND:72s9l - Copy.png;
#LYRICSPATH:;
#CDTITLE:;
#MUSIC:The Spectacular Spider-Man - Opening Theme FULL VER. Cover by We.B.mp3;
#OFFSET:-0.089688;
#SAMPLESTART:42.312607;
#SAMPLELENGTH:12.000000;
#SELECTABLE:YES;
#BPMS:0.000000=142.102997
;
#STOPS:
;
#BGCHANGES:;
#KEYSOUNDS:;
#ATTACKS:;

//---------------dance-single - Basic----------------
#NOTES:
     dance-single:
     Basic:
     Easy:
     4:
     0.138148,0.120147,0.000000,0.000000,0.000000,165.000000,165.000000,0.000000,0.000000,0.000000,0.000000,0.138148,0.120147,0.000000,0.000000,0.000000,165.000000,165.000000,0.000000,0.000000,0.000000,0.000000:
// measure 0
1000
0000
0001
0000
,  // measure 1
1000
0000
0100
0000
,  // measure 2
1000
0000
0100
0000
,  // measure 3
0001
0000
0100
0000
,  // measure 4
1000
0000
0010
0000
,  // measure 5
1000
0000
0010
0000
,  // measure 6
0001
0000
0010
0000
,  // measure 7
1000
0000
0100
0000
,  // measure 8
1000
0000
0100
0000
,  // measure 9
0001
0000
1000
0000
,  // measure 10
0001
0000
0100
0000
,  // measure 11
1000
0000
0100
0000
,  // measure 12
1000
0000
0010
0000
,  // measure 13
0001
0000
0100
0000
,  // measure 14
0001
0000
1000
0000
,  // measure 15
0001
0000
0100
0000
,  // measure 16
1000
0000
0010
0000
,  // measure 17
1000
0000
0100
0000
,  // measure 18
0001
0000
0100
0000
,  // measure 19
0001
0000
0010
0000
,  // measure 20
0001
0000
0100
0000
,  // measure 21
0001
0000
1000
0000
,  // measure 22
0001
0000
1000
0000
,  // measure 23
1000
0000
0010
0000
,  // measure 24
1000
0000
0100
0000
,  // measure 25
1000
0000
0010
0000
,  // measure 26
1000
0000
0100
0000
,  // measure 27
1000
0000
0010
0000
,  // measure 28
1000
0000
0100
0000
,  // measure 29
0010
0000
0001
0000
,  // measure 30
1000
0000
0010
0000
,  // measure 31
0001
0000
0010
0000
,  // measure 32
1000
0000
0010
0000
,  // measure 33
1000
0000
0010
0000
,  // measure 34
0001
0000
0010
0000
,  // measure 35
1000
0000
0100
0000
,  // measure 36
1000
0000
0010
0000
,  // measure 37
1000
0000
0010
0000
,  // measure 38
1000
0000
0100
0000
,  // measure 39
1000
0000
0010
0000
,  // measure 40
0001
0000
0100
0000
,  // measure 41
1000
0000
0010
0000
,  // measure 42
1000
0000
0100
0000
,  // measure 43
0001
0000
0010
0000
,  // measure 44
1000
0000
0010
0000
,  // measure 45
0001
0000
0010
0000
,  // measure 46
1000
0000
0100
0000
,  // measure 47
1000
0000
0100
0000
,  // measure 48
1000
0000
0010
0000
,  // measure 49
1000
0000
0100
0000
,  // measure 50
1000
0000
0100
0000
,  // measure 51
1000
0000
0100
0000
,  // measure 52
0001
0000
0010
0000
,  // measure 53
0001
0000
1000
0000
,  // measure 54
1000
0000
0100
0000
,  // measure 55
1000
0000
0100
0000
,  // measure 56
1000
0000
0010
0000
,  // measure 57
1000
0000
0010
0000
,  // measure 58
0001
0000
1000
0000
,  // measure 59
0001
0000
0100
0000
,  // measure 60
0001
0000
1000
0000
,  // measure 61
1000
0000
0100
0000
,  // measure 62
0001
0000
0100
0000
,  // measure 63
1000
0000
0100
0000
,  // measure 64
0001
0000
0100
0000
,  // measure 65
0001
0000
1000
0000
,  // measure 66
1000
0000
0010
0000
,  // measure 67
1000
0000
0100
0000
,  // measure 68
1000
0000
0010
0000
,  // measure 69
1000
0000
0100
0000
,  // measure 70
1000
0000
0010
0000
,  // measure 71
1000
0000
0100
0000
,  // measure 72
0001
0000
0100
0000
,  // measure 73
0001
0000
0100
0000
,  // measure 74
0001
0000
0010
0000
,  // measure 75
1000
0000
0100
0000
,  // measure 76
0001
0000
0100
0000
,  // measure 77
0001
0000
0010
0000
,  // measure 78
1000
0000
1000
0000
,  // measure 79
0001
0000
0010
0000
,  // measure 80
0001
0000
0100
0000
,  // measure 81
1000
0000
1000
0000
,  // measure 82
0001
0000
0000
0000
;
