#VERSION:0.83;
#TITLE:sound of my dreams;
#SUBTITLE:;
#ARTIST:Unknown artist;
#TITLETRANSLIT:;
#SUBTITLETRANSLIT:;
#ARTISTTRANSLIT:;
#GENRE:;
#ORIGIN:;
#CREDIT:;
#BANNER:Sound of My Dreams.png;
#BACKGROUND:Sound of My Dreams-bg.png;
#PREVIEWVID:;
#JACKET:;
#CDIMAGE:;
#DISCIMAGE:soundofmydreamdjsr-bg.png;
#LYRICSPATH:;
#CDTITLE:;
#MUSIC:New Project1.mp3;
#OFFSET:0.000000;
#SAMPLESTART:100.000000;
#SAMPLELENGTH:12.000000;
#SELECTABLE:YES;
#BPMS:0.000=125.000;
#STOPS:;
#DELAYS:;
#WARPS:;
#TIMESIGNATURES:0.000=4=4;
#TICKCOUNTS:0.000=0;
#COMBOS:0.000=1;
#SPEEDS:0.000=1.800=0.000=0;
#SCROLLS:0.000=2.000;
#FAKES:;
#LABELS:0.000=Song Start;
#BGCHANGES:0.000=soundofmydreams.avi=1.000=0=0=0=StretchNoLoop====,
99999=-nosongbg-=1.000=0=0=0 // don't automatically add -songbackground-
;
#KEYSOUNDS:;
#ATTACKS:
;

//---------------dance-single - ----------------
#NOTEDATA:;
#CHARTNAME:;
#STEPSTYPE:dance-single;
#DESCRIPTION:;
#CHARTSTYLE:;
#DIFFICULTY:Easy;
#METER:1;
#RADARVALUES:0.122103,0.181062,0.007988,0.013313,0.000000,321.000000,318.000000,3.000000,5.000000,0.000000,0.000000,0.000000,0.000000,0.000000,0.122103,0.181062,0.007988,0.013313,0.000000,321.000000,318.000000,3.000000,5.000000,0.000000,0.000000,0.000000,0.000000,0.000000;
#CREDIT:;
#NOTES:
// measure 0
0000
0100
1000
0010
,  // measure 1
0001
0100
0010
1000
,  // measure 2
0010
0100
0010
0100
,  // measure 3
1000
0010
1000
0100
,  // measure 4
0001
1000
0010
0001
,  // measure 5
0010
0100
0001
1000
,  // measure 6
0100
0010
1000
0010
,  // measure 7
0001
0200
0000
0000
,  // measure 8
0300
0010
0100
1000
,  // measure 9
0001
1000
0010
0100
,  // measure 10
0001
1000
0010
0001
,  // measure 11
0100
0010
1000
0001
,  // measure 12
1000
0010
0100
0100
,  // measure 13
0001
0010
0100
0010
,  // measure 14
0001
0100
1000
0100
,  // measure 15
1000
0001
1000
0010
,  // measure 16
0100
0001
0010
0100
,  // measure 17
1000
0100
0010
1000
,  // measure 18
0001
0100
1000
0010
,  // measure 19
0100
0001
0010
0100
,  // measure 20
1000
1000
0001
0010
,  // measure 21
1000
0100
0010
0000
,  // measure 22
0010
0100
0100
1000
,  // measure 23
0001
1000
0000
0000
,  // measure 24
0001
0000
0000
0000
,  // measure 25
1000
1000
0100
0001
,  // measure 26
0001
0010
1000
0010
,  // measure 27
0001
0100
0001
1000
,  // measure 28
0100
0001
0010
0001
,  // measure 29
1000
0010
1000
0010
,  // measure 30
0100
0001
0010
0001
,  // measure 31
0100
1000
0010
0100
,  // measure 32
0010
0100
1000
0010
,  // measure 33
0100
0001
1000
0001
,  // measure 34
1000
0001
1000
0001
,  // measure 35
1000
0001
1000
0001
,  // measure 36
1000
0001
1000
0001
,  // measure 37
1000
0001
1000
0001
,  // measure 38
1000
0001
0100
0010
,  // measure 39
0100
0010
0100
0010
,  // measure 40
0010
0010
0100
0100
,  // measure 41
0100
0001
0010
1000
,  // measure 42
0001
0010
1000
0010
,  // measure 43
0100
1000
0001
0010
,  // measure 44
1000
0100
0010
0001
,  // measure 45
1000
1000
1000
0001
,  // measure 46
0001
0001
0010
0010
,  // measure 47
0010
0100
0100
0100
,  // measure 48
1000
1000
1000
0010
,  // measure 49
1000
0100
0010
0100
,  // measure 50
1000
0010
0100
1000
,  // measure 51
0001
0010
0001
0100
,  // measure 52
0010
0100
0001
1000
,  // measure 53
0010
1000
1000
1000
,  // measure 54
1000
0001
0001
0001
,  // measure 55
0001
0001
1000
1000
,  // measure 56
1000
1000
1000
0010
,  // measure 57
0010
2002
0000
3003
,  // measure 58
0010
1000
0010
0100
,  // measure 59
0001
0100
0010
1000
,  // measure 60
0001
0100
0010
1000
,  // measure 61
0010
0100
0001
1000
,  // measure 62
0001
0100
1000
0001
,  // measure 63
0100
1000
0010
0001
,  // measure 64
0100
1000
0001
0100
,  // measure 65
0001
1000
0010
1000
,  // measure 66
0010
0001
0100
1000
,  // measure 67
0100
0010
0001
0010
,  // measure 68
0100
1000
0010
0100
,  // measure 69
0001
2002
0000
0000
,  // measure 70
0000
0000
0000
0000
,  // measure 71
0000
0000
0000
0000
,  // measure 72
0000
0000
0000
0000
,  // measure 73
3003
0000
1001
0000
0000
0000
0100
0100
,  // measure 74
0100
0010
0010
0010
0010
1000
1000
1000
,  // measure 75
1000
0001
0001
0001
0001
1000
1000
1000
,  // measure 76
1000
0010
0010
0010
0010
1000
1000
1000
,  // measure 77
1000
0001
0001
0001
0001
1000
0001
1000
,  // measure 78
0001
1000
0001
1000
0001
1000
0001
1000
,  // measure 79
0001
1000
0001
1000
0001
1000
0001
1000
,  // measure 80
0001
0000
0000
0000
;
