#VERSION:0.83;
#TITLE:Sound Of My Dream;
#SUBTITLE:Remix;
#ARTIST:Clubringer & Kasia Lesing;
#TITLETRANSLIT:;
#SUBTITLETRANSLIT:;
#ARTISTTRANSLIT:;
#GENRE:;
#ORIGIN:;
#CREDIT:;
#BANNER:Sound of My Dreams.png;
#BACKGROUND:Sound of My Dreams-bg.png;
#PREVIEWVID:;
#JACKET:;
#CDIMAGE:;
#DISCIMAGE:;
#LYRICSPATH:;
#CDTITLE:;
#MUSIC:Sound of My Dreams.mp3;
#OFFSET:-6.889000;
#SAMPLESTART:64.730003;
#SAMPLELENGTH:12.000000;
#SELECTABLE:YES;
#BPMS:0.000=140.000;
#STOPS:;
#DELAYS:;
#WARPS:;
#TIMESIGNATURES:0.000=4=4;
#TICKCOUNTS:0.000=4;
#COMBOS:0.000=1;
#SPEEDS:0.000=2.000=0.000=0;
#SCROLLS:0.000=1.000;
#FAKES:;
#LABELS:0.000=Song Start;
#BGCHANGES:0.000=soundofmydreams.avi=1.000=0=0=0=StretchNoLoop====,
99999=-nosongbg-=1.000=0=0=0 // don't automatically add -songbackground-
;
#KEYSOUNDS:;
#ATTACKS:
;

//---------------dance-single - ----------------
#NOTEDATA:;
#CHARTNAME:;
#STEPSTYPE:dance-single;
#DESCRIPTION:;
#CHARTSTYLE:;
#DIFFICULTY:Easy;
#METER:4;
#RADARVALUES:0.067332,0.060514,0.000000,0.007989,0.000000,177.000000,177.000000,0.000000,3.000000,0.000000,0.000000,0.000000,0.000000,0.000000,0.067332,0.060514,0.000000,0.007989,0.000000,177.000000,177.000000,0.000000,3.000000,0.000000,0.000000,0.000000,0.000000,0.000000;
#CREDIT:;
#NOTES:
// measure 0
0100
0100
0001
1000
,  // measure 1
0010
0100
1000
0100
,  // measure 2
0001
0010
1000
0100
,  // measure 3
0010
0001
1000
0100
,  // measure 4
0001
0010
0100
0001
,  // measure 5
1000
0010
0100
0002
,  // measure 6
0000
0000
0000
0003
,  // measure 7
0010
1000
0001
0010
,  // measure 8
1000
0100
1000
0100
,  // measure 9
0010
0100
1000
0001
,  // measure 10
1000
0001
0100
0010
,  // measure 11
1000
0001
0100
0010
,  // measure 12
1000
0100
0010
1000
,  // measure 13
0001
1000
0001
1000
,  // measure 14
0010
0100
0010
1000
,  // measure 15
0001
0010
0100
0010
,  // measure 16
0001
0010
1000
0001
,  // measure 17
0010
1000
0010
0001
,  // measure 18
1000
0010
1000
0100
,  // measure 19
0001
1000
0010
1000
,  // measure 20
0001
1000
0001
0010
,  // measure 21
0100
0001
0100
1000
,  // measure 22
0002
0000
0000
0003
,  // measure 23
2000
0000
0000
3000
,  // measure 24
1000
1000
0001
0001
,  // measure 25
0100
0100
0010
0010
,  // measure 26
0001
0001
0010
0010
,  // measure 27
0100
0100
0001
0001
,  // measure 28
0100
0001
1000
0001
,  // measure 29
0010
0000
0100
0000
,  // measure 30
0001
0000
1000
0000
,  // measure 31
0001
0000
0000
0010
,  // measure 32
0000
1000
0001
0000
,  // measure 33
0100
0000
1000
0000
,  // measure 34
0100
0000
1000
0000
,  // measure 35
0100
0000
0010
0000
,  // measure 36
1000
0000
0010
0000
,  // measure 37
0100
0001
0100
0100
,  // measure 38
0001
0001
0100
0100
,  // measure 39
0010
0010
0100
0100
,  // measure 40
1000
1000
0001
0001
,  // measure 41
0100
0100
0001
0001
,  // measure 42
0100
0100
0010
0010
,  // measure 43
1000
1000
0100
0100
,  // measure 44
0001
0001
0010
0010
,  // measure 45
0001
0001
0100
0010
,  // measure 46
0001
1000
0100
0010
,  // measure 47
1000
0001
0100
0010
,  // measure 48
1000
0100
0010
0100
,  // measure 49
1000
0001
0100
0010
,  // measure 50
1000
0010
0100
0000
;

//---------------dance-single - ----------------
#NOTEDATA:;
#CHARTNAME:;
#STEPSTYPE:dance-single;
#DESCRIPTION:;
#CHARTSTYLE:;
#DIFFICULTY:Medium;
#METER:6;
#RADARVALUES:0.110699,0.113970,0.082549,0.002663,0.010651,291.000000,260.000000,31.000000,1.000000,0.000000,0.000000,0.000000,0.000000,0.000000,0.110699,0.113970,0.082549,0.002663,0.010651,291.000000,260.000000,31.000000,1.000000,0.000000,0.000000,0.000000,0.000000,0.000000;
#CREDIT:;
#NOTES:
1000
0000
1000
0000
1000
0000
0001
0010
,
0100
0000
0100
0000
0100
0000
1000
0001
,
0010
0000
0010
0000
0010
0000
0100
1000
,
0001
0000
0001
0000
0001
0000
1000
0010
,
0110
0000
1000
0000
0001
0000
1000
0010
,
0110
0000
1000
0000
0001
0000
1000
0010
,
0110
1000
1100
0001
,
0011
1100
1010
0101
,
1001
0000
0000
0000
1000
0000
0000
0000
0001
0000
0000
0001
0000
0000
0001
0000
,
0100
0000
0000
0000
1001
0000
0000
0000
0100
0000
0000
0100
0000
0000
0100
0000
,
0010
0101
1000
1000
,
0001
0100
0001
0100
,
0010
0000
0000
0000
0110
0000
0000
0000
1000
0000
0000
1000
0000
0000
1000
0000
,
0001
0000
0000
0000
0011
0000
0000
0000
0100
0000
0000
0100
0000
0000
0100
0000
,
0001
1010
0100
0100
,
0001
0010
0001
0010
,
0110
0000
0000
0000
1000
0000
0000
0000
0001
0000
0000
0001
0000
0000
0001
0000
,
0010
0000
0000
0000
1010
0000
0000
0000
0100
0000
0000
0100
0000
0000
0100
0000
,
0010
1001
0100
0010
,
1000
0100
0010
0001
,
0100
0000
0000
0000
0101
0000
0000
0000
0010
0000
0000
0010
0000
0000
0010
0000
,
0001
0000
0000
0000
0101
0000
0000
0000
1000
0000
0000
1000
0000
0000
1000
0000
,
0010
0110
1000
0001
,
0010
0100
0010
0100
,
0100
1000
1000
1000
,
0001
0010
0100
0000
0100
0000
0100
0000
,
1000
0100
0010
0000
0001
1000
0001
1000
,
0100
0000
0010
0000
0001
0100
0001
0100
,
0010
1000
1000
1000
,
0001
1000
0010
0000
0010
0000
0010
0000
,
1000
0001
0100
0000
0001
0000
0100
0000
,
0001
1000
0001
0000
1000
0000
0001
0000
,
1000
0100
0010
0001
,
0011
0000
1000
0010
1000
0000
0100
0000
,
1100
0000
0010
0001
0010
0000
0001
0100
,
0001
0100
0010
0000
1000
0000
0001
1000
,
0001
1000
0010
0000
0100
0000
0010
0000
,
0110
0000
1000
0100
0010
0000
0001
0000
,
0011
0000
0100
0001
1000
0000
0001
0000
,
1000
0000
0001
0010
0100
0000
0010
0001
,
0010
0001
0100
0000
0010
0000
1000
0000
,
1001
0000
1000
0001
0100
0000
0001
0000
,
0011
0000
0010
0100
1000
0000
0010
0100
,
0001
0100
0010
0000
1000
0000
0001
0010
,
0100
0010
0001
0000
0100
0000
0001
0000
,
0100
0000
0001
0010
0010
0000
0001
0000
,
0010
0000
0001
0100
0100
0000
0001
0000
,
0100
0000
0001
1000
1000
0000
0100
0000
,
1000
0000
0100
0010
0200
0000
1000
0000
,
0010
0000
1300
0000
0010
0001
0000
0100
,
0000
0001
0000
0100
0000
0010
0000
1000
,
0000
0001
0000
0010
0000
0001
0000
1000
,
0000
0010
0000
1000
1100
0000
0110
0000
,
0011
0110
1001
0000
;

//---------------dance-single - ----------------
#NOTEDATA:;
#CHARTNAME:;
#STEPSTYPE:dance-single;
#DESCRIPTION:;
#CHARTSTYLE:;
#DIFFICULTY:Hard;
#METER:8;
#RADARVALUES:0.145697,0.149586,0.063909,0.021303,0.041274,383.000000,359.000000,24.000000,8.000000,0.000000,0.000000,0.000000,0.000000,0.000000,0.145697,0.149586,0.063909,0.021303,0.041274,383.000000,359.000000,24.000000,8.000000,0.000000,0.000000,0.000000,0.000000,0.000000;
#CREDIT:;
#NOTES:
0001
0000
0100
0000
0010
0000
0100
0000
0001
0000
0100
0000
0010
0000
1000
0001
,
1000
0000
0100
0000
0010
0000
0100
0000
1000
0000
0100
0000
0010
0001
0010
0001
,
0010
0000
0001
0000
0100
0000
0001
0000
0010
0000
0001
0000
0100
0000
0010
1000
,
0010
0000
1000
0000
0100
0000
1000
0000
0010
0000
1000
0000
0100
0010
0100
0010
,
0100
0000
1000
0000
0001
0000
1000
0000
0010
0000
1000
0000
0100
0000
0010
0001
,
0010
0000
0001
0000
0010
0000
0100
0000
0010
0000
1000
0000
0010
0100
0010
0100
,
0010
0000
0001
0100
0110
0000
1000
0001
,
0101
0000
1010
0000
0100
0001
0010
0100
,
0010
0000
0000
0000
0001
0000
0100
0000
0001
0000
0000
1000
0000
0000
1000
0000
,
0010
0000
0000
0000
1000
0000
0100
0000
1000
0000
0000
0001
0000
0000
0001
0000
,
0100
0000
0010
1000
0010
0000
1000
0100
,
0010
0000
0000
0010
0000
0000
0001
0000
0100
0000
0000
0000
0110
0000
0000
0000
,
1001
0000
0000
0000
1000
0000
0010
0000
0100
0000
0000
0001
0000
0000
0001
0000
,
0010
0000
0000
0000
0001
0000
0100
0000
0010
0000
0000
1000
0000
0000
1000
0000
,
0010
0000
0000
0000
0100
0000
0001
0000
0010
0000
0000
0001
0000
0000
0001
0000
,
1000
0000
0000
0100
0000
0000
0010
0000
0001
0000
0000
0000
0100
0000
0001
0000
,
0110
0000
0000
0000
1000
0000
0100
0000
0020
0000
0000
0001
0000
0000
0100
0000
,
0130
0000
0000
0000
1000
0000
0001
0000
0200
0000
0000
1000
0000
0000
0010
0000
,
0310
0000
1000
0001
0100
0000
0001
1000
,
0010
0000
0000
1000
0000
0000
0001
0000
0010
0000
0000
0000
1001
0000
0000
0000
,
0100
0000
0000
0000
0001
0000
1000
0000
0200
0000
0000
0001
0000
0000
0010
0000
,
0310
0000
0000
0000
0001
0000
1000
0000
0020
0000
0000
1000
0000
0000
0100
0000
,
0130
0000
0000
0000
0001
0000
0010
0000
0200
0000
0000
1000
0000
0000
0010
0000
,
0310
0000
0000
0000
0001
0000
1000
0000
0001
0000
0000
0100
0000
0000
0100
0000
,
0001
1100
0010
1001
,
0100
0001
0100
0000
1001
0000
0100
0000
,
0101
0100
0010
0000
1000
0100
0001
0100
,
1000
0000
0010
0000
0100
0001
1000
0001
,
0100
0000
0001
0010
0001
0100
0001
0010
,
0100
1000
0010
0100
0010
1000
0010
0100
,
0001
1000
0100
0010
0100
1000
0100
0010
,
0100
0000
1000
0000
0010
0100
0010
0100
0001
1000
0001
1000
0200
0000
0000
0010
,
0000
1000
1300
0000
0001
0010
0100
0000
,
1001
0000
1000
0100
0010
0000
0011
0000
,
0110
0000
1000
0010
0100
0000
0001
0010
,
1000
0010
0001
0000
0110
0000
1000
0100
,
0010
0100
1000
0000
0010
0100
0001
0000
,
0110
0000
0001
1000
0100
0000
0110
0000
,
0011
0000
1000
0010
0100
0000
1001
0000
,
0011
0000
1000
0010
0100
0000
0001
0010
,
0100
0010
0001
0000
1000
0010
1000
0010
,
0100
0010
0100
0010
1000
0100
0010
0001
,
1000
0001
0100
0010
2000
0000
3100
0010
,
0001
0100
0010
0000
0200
0000
0301
0010
,
0100
0010
0001
0000
1000
0001
1000
0001
,
0100
0001
0100
0001
0010
0100
1000
0010
,
0100
0001
1000
0010
0110
0000
0100
0001
,
1100
0000
0010
0100
1000
0001
1000
0001
,
0100
0010
1000
0010
0100
0000
0001
0000
0010
0000
0000
0000
0110
0000
0000
1000
,
0000
0010
0010
0000
0100
0001
0000
1000
,
0100
0010
0000
0100
1000
0010
0000
0100
,
0001
0010
0000
0001
1000
0001
0000
0100
,
0010
1000
0000
0001
0010
1000
0001
0001
,
1000
0100
0010
0010
1001
0000
0000
0000
;
