#VERSION:0.83;
#TITLE:Final Fantasy Sonic X6 Opening;
#SUBTITLE:;
#ARTIST:Dancing Monkeys Project;
#TITLETRANSLIT:;
#SUBTITLETRANSLIT:;
#ARTISTTRANSLIT:;
#GENRE:;
#ORIGIN:;
#CREDIT:Gorilla v1.1.3 (Dancing Monkeys v1.06);
#BANNER:maxresdefault.png;
#BACKGROUND:782c4d37f2f02fa92d4fd137de4b0ef7.png;
#PREVIEWVID:;
#JACKET:;
#CDIMAGE:;
#DISCIMAGE:;
#LYRICSPATH:;
#CDTITLE:;
#MUSIC:Final Fantasy Sonic X6 Opening.mp3;
#OFFSET:-1.313175;
#SAMPLESTART:45.385735;
#SAMPLELENGTH:12.000000;
#SELECTABLE:YES;
#BPMS:0.000=136.139;
#STOPS:;
#DELAYS:;
#WARPS:;
#TIMESIGNATURES:0.000=4=4;
#TICKCOUNTS:0.000=4;
#COMBOS:0.000=1;
#SPEEDS:0.000=1.000=0.000=0;
#SCROLLS:0.000=1.000;
#FAKES:;
#LABELS:0.000=Song Start;
#BGCHANGES:;
#KEYSOUNDS:;
#ATTACKS:
;

//---------------dance-single - Basic----------------
#NOTEDATA:;
#CHARTNAME:Basic;
#STEPSTYPE:dance-single;
#DESCRIPTION:Basic;
#CHARTSTYLE:;
#DIFFICULTY:Easy;
#METER:5;
#RADARVALUES:0.264387,0.265471,0.010113,0.080905,0.000000,183.000000,182.000000,1.000000,8.000000,0.000000,0.000000,0.000000,0.000000,0.000000,0.264387,0.265471,0.010113,0.080905,0.000000,183.000000,182.000000,1.000000,8.000000,0.000000,0.000000,0.000000,0.000000,0.000000;
#CREDIT:Basic;
#NOTES:
// measure 0
0001
1000
0100
0010
,  // measure 1
1000
0001
0100
0010
,  // measure 2
1000
0001
0100
1000
,  // measure 3
0001
0100
0010
0100
,  // measure 4
1000
0010
0001
0010
,  // measure 5
1000
0001
0100
0010
,  // measure 6
0001
1000
0010
0100
,  // measure 7
1000
0010
0100
0010
,  // measure 8
1000
0100
0100
0100
,  // measure 9
0001
0100
0001
1000
,  // measure 10
0001
0010
0100
0001
,  // measure 11
0001
0010
0100
0001
,  // measure 12
1000
0100
0100
0100
,  // measure 13
0001
0010
0100
0001
,  // measure 14
1000
0100
0001
0010
,  // measure 15
0001
1000
0100
0010
,  // measure 16
0001
0010
0001
1000
,  // measure 17
0001
1000
0100
0010
,  // measure 18
1000
0001
0100
0010
,  // measure 19
1000
0001
1000
0100
,  // measure 20
0001
0001
0100
0100
,  // measure 21
0001
1000
0010
0100
,  // measure 22
0001
0010
0001
1000
,  // measure 23
1000
0100
0100
0100
,  // measure 24
0001
1000
0001
0100
,  // measure 25
0001
0010
0002
0000
,  // measure 26
0000
0003
0200
0000
,  // measure 27
0000
0300
0010
0001
,  // measure 28
1000
0100
0010
1000
,  // measure 29
1000
0010
1001
0010
,  // measure 30
1000
0000
0001
0010
,  // measure 31
1000
0100
0100
0100
,  // measure 32
0001
1000
0010
1000
,  // measure 33
0001
1000
0100
0010
,  // measure 34
1000
0001
0100
0010
,  // measure 35
1000
0001
1000
0100
,  // measure 36
0001
1000
0010
1000
,  // measure 37
0001
1000
0100
0010
,  // measure 38
1000
0100
0001
1000
,  // measure 39
0001
1000
0100
0010
,  // measure 40
0001
1000
0100
0010
,  // measure 41
1000
0001
1000
0001
,  // measure 42
1000
0010
0100
0010
,  // measure 43
0001
1000
0200
0000
,  // measure 44
0000
0000
0000
0000
,  // measure 45
0000
0300
0002
0000
,  // measure 46
0000
0000
0000
0000
,  // measure 47
0003
1000
0100
0010
,  // measure 48
1000
0001
0200
0000
,  // measure 49
0300
1000
0200
0000
,  // measure 50
0300
0001
0200
0000
,  // measure 51
0300
1000
2000
0000
,  // measure 52
0000
3000
0010
0000
;

//---------------dance-single - Standard----------------
#NOTEDATA:;
#CHARTNAME:Standard;
#STEPSTYPE:dance-single;
#DESCRIPTION:Standard;
#CHARTSTYLE:;
#DIFFICULTY:Medium;
#METER:6;
#RADARVALUES:0.325066,0.380508,0.252829,0.020226,0.000000,225.000000,200.000000,25.000000,2.000000,0.000000,0.000000,0.000000,0.000000,0.000000,0.325066,0.380508,0.252829,0.020226,0.000000,225.000000,200.000000,25.000000,2.000000,0.000000,0.000000,0.000000,0.000000,0.000000;
#CREDIT:Standard;
#NOTES:
0001
0000
1000
0000
0100
0000
0010
0000
,
0001
0000
0010
0000
0100
0000
0000
0000
,
0001
0000
0100
0000
0010
0000
0000
0000
,
1000
0000
0001
0000
1100
0000
1000
0000
,
1000
0000
0100
0000
0010
0000
0001
0000
,
0001
0000
0000
0000
0010
0000
1000
0000
,
1000
0000
0001
0000
1100
0000
1000
0000
,
1000
0000
0001
0000
1100
0000
1000
0000
,
0001
0000
1000
0000
1000
0000
1000
0000
,
1000
0000
0100
0000
0101
0000
0001
0000
,
1001
0000
0001
0000
0110
0000
1000
0000
,
1000
0000
0010
0000
0101
0000
0001
0000
,
0001
0000
1000
0000
1000
0000
1000
0000
,
1001
0000
0001
0000
0110
0000
1000
0000
,
1000
0000
0100
0000
0010
0000
0001
0000
,
0011
0000
0100
0000
0010
0000
0001
0000
,
0001
0000
0010
0000
0100
0000
0000
0000
,
0001
0000
1000
0000
0100
0000
0010
0000
,
0001
0000
0000
0000
0010
0000
1000
0000
,
0001
0000
0010
0000
0001
0000
0100
0000
,
1100
0000
1000
0000
0010
0000
0010
0000
,
0001
0000
0010
0000
0100
1000
0000
0000
,
1000
0000
0100
0000
0101
0000
0001
0000
,
0001
0000
1000
0000
1000
0000
1000
0000
,
0011
0000
0001
0000
0010
0000
0001
0000
,
1001
0000
0001
0000
0110
0000
1000
0000
,
1001
0000
1000
0000
0110
0000
0001
0000
,
0011
0000
0001
0000
0101
0000
1000
0000
,
1010
0000
1000
0010
1000
0000
0000
0000
,
1000
0000
1001
0000
1000
0000
0010
0000
,
1000
0000
0100
0000
0010
0000
0001
0000
,
0001
0000
1000
0000
1000
0000
1000
0000
,
0001
0000
0010
0000
0100
0000
0010
0000
,
0001
0000
1000
0000
0100
0000
0010
0000
,
0001
0000
0000
0000
0010
0000
1000
0000
,
0001
0000
0010
0000
0001
0000
0100
0000
,
0001
0000
0010
0000
0100
0000
0010
0000
,
0001
0000
1000
0000
0100
0000
0010
0000
,
1100
0000
0001
0000
0100
0000
0010
0000
,
0001
0000
1000
0000
0100
0000
0010
0000
,
0001
0000
0100
0000
0001
0000
0100
0000
,
0011
0000
1000
0000
0010
0000
1000
0000
,
0001
0000
0000
0000
0010
0000
1000
0000
,
0011
0000
0001
0000
0010
0000
0001
0000
,
1010
0000
1000
0000
0010
0000
1000
0000
,
0001
0000
0010
0000
0100
0000
0000
0000
,
2000
0000
0000
0000
3000
0000
0100
0000
,
0001
0000
0100
0000
0001
0000
0100
0000
,
0001
0000
0010
0000
0100
0000
0000
0000
,
0001
0000
0100
0000
0001
0000
0100
0000
,
0001
0000
0010
0000
0100
0000
0000
0000
,
0001
0000
0100
0000
0010
0000
0000
0000
,
0001
0000
0010
0000
0100
0000
0000
0000
,
2000
0000
0000
0000
3000
0000
0100
0000
,
;

//---------------dance-single - Heavy----------------
#NOTEDATA:;
#CHARTNAME:Heavy;
#STEPSTYPE:dance-single;
#DESCRIPTION:Heavy;
#CHARTSTYLE:;
#DIFFICULTY:Hard;
#METER:6;
#RADARVALUES:0.368408,0.380508,0.323621,0.020226,0.000000,255.000000,223.000000,32.000000,2.000000,0.000000,0.000000,0.000000,0.000000,0.000000,0.368408,0.380508,0.323621,0.020226,0.000000,255.000000,223.000000,32.000000,2.000000,0.000000,0.000000,0.000000,0.000000,0.000000;
#CREDIT:Heavy;
#NOTES:
0001
0000
0100
0001
0010
0000
0100
0000
,
0001
0000
0010
0000
0100
0000
0010
0000
,
1000
0000
0010
0000
0100
0000
0010
0000
,
1000
0000
0010
0000
1010
0000
0001
0000
,
0001
0000
0010
0000
0100
0000
1000
0000
,
0001
0000
0100
0000
0001
0000
0100
0000
,
1000
0000
0010
0000
1010
0000
0001
0000
,
1000
0000
0010
0000
1010
0000
0001
0000
,
0001
0000
0100
0000
0011
0000
0001
0000
,
0001
0000
0100
0000
0110
0000
0100
0000
,
1001
0000
1000
0000
1100
0000
1000
0000
,
0001
0000
0100
0000
0101
0000
1000
0000
,
0001
0000
0100
0000
0011
0000
0001
0000
,
1001
0000
1000
0000
1100
0000
1000
0000
,
0001
0000
0010
0000
0100
0000
1000
0000
,
1001
0000
0010
0000
1000
0000
0100
0000
,
0001
0000
0100
0000
0001
0000
1000
0000
,
0001
0000
0100
0001
0010
0000
0100
0000
,
0001
0000
0100
0000
0001
0000
0100
0000
,
0001
0000
1000
0100
1000
0000
0010
0000
,
0011
0000
0001
0000
1000
0100
0100
0000
,
0001
0000
0000
0010
0100
0010
0000
0000
,
0001
0000
0100
0000
0110
0000
0100
0000
,
0001
0000
0100
0000
0011
0000
0001
0000
,
0011
0000
0010
0000
0100
0000
1000
0000
,
1001
0000
1000
0000
1100
0000
1000
0000
,
1001
0000
0001
0000
0101
0000
0001
0000
,
1010
0000
1000
0000
1001
0000
0001
0000
,
0110
0000
0010
0100
0001
0000
0000
0000
,
1000
0000
0110
0000
0001
0000
0010
0000
,
0001
0000
0010
0000
0100
0000
1000
0000
,
0001
0000
0100
0000
0011
0000
0001
0000
,
0110
0000
0001
0100
0010
0000
1000
0000
,
0001
0000
0100
0001
0010
0000
0100
0000
,
0001
0000
0100
0000
0001
0000
0100
0000
,
0001
0000
1000
0100
1000
0000
0010
0000
,
0110
0000
0001
0100
0010
0000
1000
0000
,
0001
0000
0100
0001
0010
0000
0100
0000
,
1100
0000
0001
0000
0110
0000
1000
0000
,
0001
0000
0100
0001
0010
0000
0100
0000
,
1000
0000
0100
0000
0010
0000
0001
0000
,
0011
0000
1000
0001
0100
0000
0010
0000
,
0001
0000
0100
0000
0001
0000
0100
0000
,
0011
0000
0010
0000
0100
0000
1000
0000
,
1010
0000
0010
0000
0100
0000
0001
0000
,
0001
0000
0010
0000
0100
0000
0010
0000
,
2000
0000
0000
0000
3000
0000
0100
0000
,
1000
0000
0100
0000
0010
0000
0001
0000
,
0001
0000
0010
0000
0100
0000
0010
0000
,
1000
0000
0100
0000
0010
0000
0001
0000
,
0001
0000
0010
0000
0100
0000
0010
0000
,
0001
0000
0010
0000
0100
0000
0010
0000
,
1000
0000
0100
0000
0010
0000
0100
0000
,
2000
0000
0000
0000
3000
0000
0100
0000
,
;
