#VERSION:0.83;
#TITLE:Final Fantasy Sonic X6 Ending Original HD;
#SUBTITLE:;
#ARTIST:Dancing Monkeys Project;
#TITLETRANSLIT:;
#SUBTITLETRANSLIT:;
#ARTISTTRANSLIT:;
#GENRE:;
#ORIGIN:;
#CREDIT:Gorilla v1.1.3 (Dancing Monkeys v1.06);
#BANNER:flash_443187_card.png;
#BACKGROUND:782c4d37f2f02fa92d4fd137de4b0ef7.png;
#PREVIEWVID:;
#JACKET:;
#CDIMAGE:;
#DISCIMAGE:;
#LYRICSPATH:;
#CDTITLE:;
#MUSIC:Final Fantasy Sonic X6 Ending Original HD.mp3;
#OFFSET:-0.017392;
#SAMPLESTART:35.747551;
#SAMPLELENGTH:12.000000;
#SELECTABLE:YES;
#BPMS:0.000=167.925;
#STOPS:;
#DELAYS:;
#WARPS:;
#TIMESIGNATURES:0.000=4=4;
#TICKCOUNTS:0.000=4;
#COMBOS:0.000=1;
#SPEEDS:0.000=1.000=0.000=0;
#SCROLLS:0.000=1.000;
#FAKES:;
#LABELS:0.000=Song Start;
#BGCHANGES:;
#KEYSOUNDS:;
#ATTACKS:
;

//---------------dance-single - Basic----------------
#NOTEDATA:;
#CHARTNAME:Basic;
#STEPSTYPE:dance-single;
#DESCRIPTION:Basic;
#CHARTSTYLE:;
#DIFFICULTY:Easy;
#METER:4;
#RADARVALUES:0.333825,0.299667,0.000000,0.064315,0.000000,218.000000,218.000000,0.000000,6.000000,0.000000,0.000000,0.000000,0.000000,0.000000,0.333825,0.299667,0.000000,0.064315,0.000000,218.000000,218.000000,0.000000,6.000000,0.000000,0.000000,0.000000,0.000000,0.000000;
#CREDIT:Basic;
#NOTES:
// measure 0
0000
0000
0000
0000
0000
1000
0000
1000
,  // measure 1
0000
1000
0000
0100
0000
0001
0000
0100
,  // measure 2
0000
0010
0000
0100
0000
0100
0000
0001
,  // measure 3
0000
1000
0000
1000
0000
0100
0000
1000
,  // measure 4
0000
0010
0000
0100
0000
1000
0000
0001
,  // measure 5
0000
1000
0000
0010
0000
0100
0000
1000
,  // measure 6
0000
0010
0000
0001
0000
0100
0000
1000
,  // measure 7
0000
0010
0000
0001
0000
0100
0000
0010
,  // measure 8
0000
0100
0000
1000
0000
0010
0000
1000
,  // measure 9
0000
0100
0000
0001
0000
0100
0000
0001
,  // measure 10
0000
1000
0000
0100
0000
0010
0000
1000
,  // measure 11
0000
0001
0000
0100
0000
0010
0000
1000
,  // measure 12
0000
0001
0000
0001
0000
1000
0000
0010
,  // measure 13
0000
1000
0000
0001
0000
1000
0000
0001
,  // measure 14
0000
1000
0000
0010
0000
0100
0000
1000
,  // measure 15
0000
0001
0000
0100
0000
0010
0000
1000
,  // measure 16
0000
0001
0000
0100
0000
1000
0000
0010
,  // measure 17
0000
1000
0000
0100
0000
0010
0000
0001
,  // measure 18
0000
1000
0000
0100
0000
0001
0000
0010
,  // measure 19
0000
0100
0000
1000
0000
0010
0000
1000
,  // measure 20
0000
0100
0000
0001
0000
0100
0000
1000
,  // measure 21
0000
0010
0000
0000
0200
0000
0000
0000
,  // measure 22
0000
0000
0000
0000
,  // measure 23
0000
0300
0000
0010
0000
0001
0000
0100
,  // measure 24
0000
0001
0000
1000
0000
0020
0000
0000
,  // measure 25
0000
0030
0000
0100
0000
0100
0000
0002
,  // measure 26
0000
0000
0000
0000
0000
0003
0000
1000
,  // measure 27
0000
1000
0000
0001
0000
1000
0000
1000
,  // measure 28
0000
0010
0000
0010
0000
0100
0000
0100
,  // measure 29
0000
1000
0000
0001
0000
0001
0000
0100
,  // measure 30
0000
0001
0000
0001
0000
0001
0000
1000
,  // measure 31
0000
0001
0000
0001
0000
0100
0000
1000
,  // measure 32
0000
1000
0000
0001
0000
0010
0000
0000
,  // measure 33
0000
0001
0000
1000
0000
0001
0000
1000
,  // measure 34
0000
0000
0000
0010
0000
0010
0000
1000
,  // measure 35
0000
1000
0000
0100
0000
1000
0000
1000
,  // measure 36
0000
1000
0000
0010
0000
1000
0000
0001
,  // measure 37
0000
0010
0000
0020
0000
0000
0000
0000
,  // measure 38
0000
0000
0000
0000
0000
0000
0000
0030
,  // measure 39
0000
1000
0000
0100
0000
0100
0000
1000
,  // measure 40
0000
0001
0000
0000
0000
0010
0000
0000
,  // measure 41
0000
0001
0000
1000
0000
0001
0000
0001
,  // measure 42
0000
1000
0000
0100
0000
0100
0000
0001
,  // measure 43
0000
1000
0000
0010
0000
0100
0000
0001
,  // measure 44
0000
1000
0000
0010
0000
0100
0000
0001
,  // measure 45
0000
0010
0000
0010
0000
1000
0000
0100
,  // measure 46
0000
0010
0000
0100
0000
0100
0000
0001
,  // measure 47
0000
0010
0000
0100
0000
0001
0000
0010
,  // measure 48
0000
0100
0000
1000
0000
0010
0000
1000
,  // measure 49
0000
0010
0000
0001
0000
0100
0000
0010
,  // measure 50
0000
0100
0000
0001
0000
0010
0000
0100
,  // measure 51
0000
1000
0000
0010
0000
0001
0000
0100
,  // measure 52
0000
1000
0000
0010
0000
0100
0000
1000
,  // measure 53
0000
0010
0000
0100
0000
0001
0000
0010
,  // measure 54
0000
0100
0000
0010
0000
0010
0000
0010
,  // measure 55
0000
0001
0000
0001
0000
1000
0000
0100
,  // measure 56
0000
0010
0000
0001
0000
0010
0000
0100
,  // measure 57
0000
0001
0000
0010
0000
0100
0000
0020
,  // measure 58
0000
0000
0000
0000
0030
0000
0000
0001
,  // measure 59
0000
1000
0000
0100
0000
0000
0000
1000
,  // measure 60
0000
0000
0000
0001
0000
0100
0000
0001
,  // measure 61
0000
0001
0000
0020
0000
0000
0000
0000
,  // measure 62
0030
0001
0000
0000
0000
0000
0000
0000
;

//---------------dance-single - Standard----------------
#NOTEDATA:;
#CHARTNAME:Standard;
#STEPSTYPE:dance-single;
#DESCRIPTION:Standard;
#CHARTSTYLE:;
#DIFFICULTY:Medium;
#METER:5;
#RADARVALUES:0.312387,0.400360,0.139349,0.021438,0.000000,204.000000,191.000000,13.000000,2.000000,0.000000,0.000000,0.000000,0.000000,0.000000,0.312387,0.400360,0.139349,0.021438,0.000000,204.000000,191.000000,13.000000,2.000000,0.000000,0.000000,0.000000,0.000000,0.000000;
#CREDIT:Standard;
#NOTES:
0000
0000
0000
0000
1000
0000
0010
0000
,
1000
0000
0000
0000
0010
0000
1000
0000
,
1000
0000
0000
0000
0001
0000
0010
0000
,
0001
0000
0100
0000
0000
0000
0010
0000
,
1010
0000
0000
0000
0001
0000
0010
0000
,
0001
0000
0100
0000
0000
0000
0010
0000
,
1000
0000
0000
0000
0010
0000
1000
0000
,
1000
0000
0010
0000
0000
0000
1000
0000
,
0001
0000
1010
0000
0001
0000
0100
0000
,
1000
0000
0100
0000
0010
0000
0110
0000
,
1100
0000
0001
0000
1000
0000
0001
0000
,
1000
0000
0100
0000
0000
0000
0010
0000
,
1000
0000
0000
0000
0001
0000
1000
0000
,
0001
0000
0010
0000
0011
0000
1000
0000
,
0001
0000
0100
0000
0000
0000
0010
0000
,
1000
0000
0100
0000
0000
0000
0010
0000
,
1010
0000
0000
0000
0001
0000
0010
0000
,
0001
0000
1000
0000
0010
0000
0100
0000
,
1100
0000
0001
0000
1000
0000
0001
0000
,
0001
0000
1010
0000
0001
0000
0100
0000
,
1000
0000
0000
0000
0010
0000
1000
0000
,
1000
0000
0001
0000
0010
0000
0001
0000
,
0001
0000
0010
0000
0010
0000
0000
0000
,
1000
0000
0000
0000
0010
0000
1000
0000
,
1000
0000
0000
0000
0010
0000
1000
0000
,
1000
0000
0001
0000
0010
0000
0001
0000
,
1100
0000
0001
0000
1000
0000
0001
0000
,
1010
0000
0000
0000
0001
0000
0010
0000
,
1000
0000
0000
0000
0010
0000
1000
0000
,
1000
0000
0000
0000
0010
0000
1000
0000
,
0001
0000
0010
0000
0010
0000
0000
0000
,
1000
0000
0000
0000
0010
0000
1000
0000
,
1000
0000
0000
0000
0100
0000
1000
0000
,
0000
0000
0001
0000
1000
0000
0010
0000
,
1000
0000
0000
0000
0001
0000
1000
0000
,
1010
0000
0000
0000
0001
0000
0010
0000
,
1000
0000
0000
0000
0001
0000
1000
0000
,
1000
0000
0000
0000
0001
0000
0010
0000
,
0001
0000
0010
0000
0010
0000
0000
0000
,
0001
0000
0100
0000
0000
0000
0010
0000
,
1000
0000
0100
0000
0000
0000
0010
0000
,
0000
0000
0001
0000
1000
0000
0010
0000
,
0001
0000
0100
0000
0000
0000
0010
0000
,
1000
0000
0000
0000
0001
0000
0010
0000
,
0002
0000
0000
0000
0000
0000
0003
0000
,
1000
0000
0000
0000
0001
0000
0010
0000
,
0000
0000
0001
0000
1000
0000
0010
0000
,
0001
0000
0000
0000
0010
0000
0002
0000
,
1000
0000
0000
0000
0010
0000
1000
0000
,
1000
0000
0000
0000
0001
0000
0010
0000
,
1000
0000
0000
0000
0001
0000
1000
0000
,
1010
0000
0000
0000
0001
0000
0010
0000
,
1000
0000
0000
0000
0001
0000
1000
0000
,
1000
0000
0000
0000
0010
0000
1000
0000
,
0001
0000
0010
0000
0010
0000
0000
0000
,
0001
0000
0000
0000
0010
0000
0002
0000
,
0002
0000
0000
0000
0000
0000
0003
0000
,
1000
0000
0000
0000
0001
0000
0010
0000
,
1000
0000
0000
0000
0001
0000
1000
0000
,
1100
0000
0001
0000
1000
0000
0001
0000
,
1000
0000
0000
0000
0010
0000
1000
0000
,
1000
0000
0000
0000
0001
0000
0010
0000
,
0000
0000
0001
0000
0000
0000
0000
0000
,
0000
0000
0000
0000
0000
0000
0000
0000
,
;

//---------------dance-single - Heavy----------------
#NOTEDATA:;
#CHARTNAME:Heavy;
#STEPSTYPE:dance-single;
#DESCRIPTION:Heavy;
#CHARTSTYLE:;
#DIFFICULTY:Hard;
#METER:7;
#RADARVALUES:0.373639,0.400360,0.182226,0.021438,0.000000,244.000000,227.000000,17.000000,2.000000,0.000000,0.000000,0.000000,0.000000,0.000000,0.373639,0.400360,0.182226,0.021438,0.000000,244.000000,227.000000,17.000000,2.000000,0.000000,0.000000,0.000000,0.000000,0.000000;
#CREDIT:Heavy;
#NOTES:
0000
0000
0000
0000
1000
0000
0001
0000
,
0001
0000
0010
0000
0100
0000
1000
0000
,
0001
0000
0000
0000
1000
0000
0100
0000
,
0001
0000
1000
0000
0001
0000
1000
0000
,
1001
0000
0001
0000
0100
0000
0001
0000
,
0001
0000
1000
0000
0001
0000
1000
0000
,
0001
0000
0010
0000
0100
0000
1000
0000
,
1000
0000
0010
0000
0000
0000
1000
0010
,
0001
0000
0011
0000
0001
0000
0100
0000
,
1000
0000
0100
0000
0010
0000
0011
0000
,
1001
0000
1000
0000
0001
0000
0100
0000
,
1000
0000
0001
0000
0000
0000
0110
0000
,
1000
0000
0010
0000
0100
0000
0001
0000
,
1000
0000
0100
0000
1100
0000
0001
0000
,
0001
0000
1000
0000
0001
0000
1000
0000
,
1000
0000
0001
0000
0000
0000
0110
0000
,
1001
0000
0001
0000
0100
0000
0001
0000
,
0001
0000
0010
0000
0001
0000
0100
0000
,
1001
0000
1000
0000
0001
0000
0100
0000
,
0001
0000
0011
0000
0001
0000
0100
0000
,
0001
0000
0010
0000
0100
0000
1000
0000
,
0011
0000
0001
0000
0100
0000
0010
0000
,
1000
0000
0001
0000
0001
0000
0000
0000
,
0001
0000
0010
0000
0100
0000
1000
0000
,
0001
0000
0100
0000
0010
0000
1000
0000
,
0011
0000
0001
0000
0100
0000
0010
0000
,
1001
0000
1000
0000
0001
0000
0100
0000
,
1001
0000
0001
0000
0100
0000
0001
0000
,
0001
0000
0010
0000
0100
0000
1000
0000
,
1000
0000
0100
0000
0010
0000
0001
0000
,
1000
0000
0001
0000
0001
0000
0000
0000
,
0001
0000
0010
0000
0100
0000
1000
0000
,
0001
0000
0100
0000
0010
0000
1000
0000
,
0001
0000
0100
0000
0010
0000
0100
0000
,
1000
0000
0010
0000
0100
0000
0001
0000
,
1001
0000
0001
0000
0100
0000
0001
0000
,
1000
0000
0010
0000
0100
0000
0001
0000
,
1000
0000
0000
0000
0010
0000
1000
0000
,
1000
0000
0001
0000
0001
0000
0000
0000
,
0001
0000
1000
0000
0001
0000
1000
0000
,
1000
0000
0001
0000
1000
0000
0001
0000
,
0001
0000
0100
0000
0010
0000
0100
0000
,
0001
0000
1000
0000
0001
0000
1000
0000
,
1000
0000
0000
0000
0010
0000
1000
0000
,
0002
0000
0010
0000
0000
0000
0003
0000
,
1000
0000
0000
0000
0010
0000
1000
0000
,
0001
0000
0100
0000
0010
0000
0100
0000
,
1000
0000
0000
0000
0100
0000
0020
0000
,
0001
0000
0010
0000
0100
0000
1000
0000
,
1000
0000
0000
0000
0010
0000
1000
0000
,
1000
0000
0010
0000
0100
0000
0001
0000
,
1001
0000
0001
0000
0100
0000
0001
0000
,
1000
0000
0010
0000
0100
0000
0001
0000
,
0001
0000
0010
0000
0100
0000
1000
0000
,
1000
0000
0001
0000
0001
0000
0000
0000
,
1000
0000
0000
0000
0100
0000
0020
0000
,
0002
0000
0010
0000
0000
0000
0003
0000
,
1000
0000
0000
0000
0010
0000
1000
0000
,
1000
0000
0010
0000
0100
0000
0001
0000
,
1001
0000
1000
0000
0001
0000
0100
0000
,
0001
0000
0010
0000
0100
0000
1000
0000
,
1000
0000
0000
0000
0010
0000
1000
0000
,
0001
0000
1000
0000
0000
0000
0000
0000
,
0000
0000
0000
0000
0000
0000
0000
0000
,
;
