#VERSION:0.83;
#TITLE:Something to dance forTTYLXOX Mash up - Bella Thorn & Zendaya (Lyric video);
#SUBTITLE:;
#ARTIST:Dancing Monkeys Project;
#TITLETRANSLIT:;
#SUBTITLETRANSLIT:;
#ARTISTTRANSLIT:;
#GENRE:;
#ORIGIN:;
#CREDIT:Gorilla v1.1.3 (Dancing Monkeys v1.06);
#BANNER:p9464873_b_h10_ab.png;
#BACKGROUND:ShakeItUp-LiveToDance.png;
#PREVIEWVID:;
#JACKET:;
#CDIMAGE:;
#DISCIMAGE:;
#LYRICSPATH:;
#CDTITLE:;
#MUSIC:Something to dance forTTYLXOX Mash up - Bella Thorn & Zendaya (Lyric video).mp3;
#OFFSET:-1.311814;
#SAMPLESTART:47.452400;
#SAMPLELENGTH:12.000000;
#SELECTABLE:YES;
#BPMS:0.000=130.037;
#STOPS:;
#DELAYS:;
#WARPS:;
#TIMESIGNATURES:0.000=4=4;
#TICKCOUNTS:0.000=4;
#COMBOS:0.000=1;
#SPEEDS:0.000=1.000=0.000=0,
157.000=0.800=0.000=0,
282.000=1.200=0.000=0;
#SCROLLS:0.000=1.000;
#FAKES:;
#LABELS:0.000=Song Start;
#BGCHANGES:;
#KEYSOUNDS:;
#ATTACKS:
;

//---------------dance-single - Basic----------------
#NOTEDATA:;
#CHARTNAME:Basic;
#STEPSTYPE:dance-single;
#DESCRIPTION:Basic;
#CHARTSTYLE:;
#DIFFICULTY:Easy;
#METER:3;
#RADARVALUES:0.226998,0.234750,0.000000,0.047969,0.000000,265.000000,265.000000,0.000000,8.000000,0.000000,0.000000,0.000000,0.000000,0.000000,0.226998,0.234750,0.000000,0.047969,0.000000,265.000000,265.000000,0.000000,8.000000,0.000000,0.000000,0.000000,0.000000,0.000000;
#CREDIT:Basic;
#NOTES:
// measure 0
0000
2000
0000
0000
,  // measure 1
0000
0000
0000
0000
,  // measure 2
3000
0002
0000
0000
,  // measure 3
0000
0000
0000
0003
,  // measure 4
0000
2000
0000
0000
,  // measure 5
0000
3000
0000
0002
,  // measure 6
0000
0000
0003
0020
,  // measure 7
0000
0000
0000
0000
,  // measure 8
0030
0010
1000
0010
,  // measure 9
1000
0001
0100
0010
,  // measure 10
1000
0001
0010
0100
,  // measure 11
0001
1000
0010
0100
,  // measure 12
0001
1000
1000
0001
,  // measure 13
0001
0001
1000
1000
,  // measure 14
1000
0010
0010
1000
,  // measure 15
1000
1000
0010
0010
,  // measure 16
0001
0001
0001
0001
,  // measure 17
0100
1000
0100
0100
,  // measure 18
0001
0001
0100
0100
,  // measure 19
0100
0010
0010
0010
,  // measure 20
0001
0001
0001
0001
,  // measure 21
1000
1000
1000
1000
,  // measure 22
0010
0010
0010
1000
,  // measure 23
1000
2000
0000
0000
,  // measure 24
3000
0100
0010
1000
,  // measure 25
1000
0001
0100
0010
,  // measure 26
0001
1000
0100
0010
,  // measure 27
0001
1000
0010
0100
,  // measure 28
1000
0001
0100
0010
,  // measure 29
0001
1000
0100
0010
,  // measure 30
1000
0001
0010
0100
,  // measure 31
0001
1000
0100
0010
,  // measure 32
1000
0001
0010
0100
,  // measure 33
1000
0001
0010
0100
,  // measure 34
0001
1000
0010
0100
,  // measure 35
0001
1000
0010
0100
,  // measure 36
0001
1000
1000
0010
,  // measure 37
0010
2000
0000
0000
,  // measure 38
0000
0000
0000
0000
,  // measure 39
3000
0001
0000
0001
,  // measure 40
0000
1000
0000
1000
,  // measure 41
0000
0010
0000
0010
,  // measure 42
0000
0010
0000
0001
,  // measure 43
1000
0000
0000
0100
,  // measure 44
0100
0100
0001
0001
,  // measure 45
1000
1000
1000
0010
,  // measure 46
0010
0001
1000
1000
,  // measure 47
0001
0001
1000
1000
,  // measure 48
0000
0001
0000
1000
,  // measure 49
0000
1000
0001
0010
,  // measure 50
1000
0010
0010
0000
,  // measure 51
0001
0001
0010
0001
,  // measure 52
1000
0100
0100
0100
,  // measure 53
0001
0100
0010
1000
,  // measure 54
0010
1000
1000
1000
,  // measure 55
0100
0100
0000
0001
,  // measure 56
0000
0010
0000
0100
,  // measure 57
0000
0100
0000
2000
,  // measure 58
0000
0000
3000
0000
,  // measure 59
1000
0000
0100
0000
,  // measure 60
0001
0000
0010
0000
,  // measure 61
1000
0000
0100
0000
,  // measure 62
0001
0000
0010
1000
,  // measure 63
0000
0010
0000
0100
,  // measure 64
0001
0010
0010
1000
,  // measure 65
0000
1000
0000
0100
,  // measure 66
0000
1000
0000
0010
,  // measure 67
0000
0100
0000
0010
,  // measure 68
0000
0001
0000
0010
,  // measure 69
0000
0000
0010
0000
,  // measure 70
0000
0000
0000
0000
,  // measure 71
1000
0010
0100
0001
,  // measure 72
1000
0001
0100
0010
,  // measure 73
1000
0100
0010
0001
,  // measure 74
1000
0010
0100
0001
,  // measure 75
1000
0010
0100
0001
,  // measure 76
0001
0010
0100
1000
,  // measure 77
0001
0100
0010
1000
,  // measure 78
0001
0010
0100
1000
,  // measure 79
0001
0100
0010
1000
,  // measure 80
1000
0001
0100
0010
,  // measure 81
1000
0100
0010
0001
,  // measure 82
0001
0100
0010
1000
,  // measure 83
1000
0010
0100
0001
,  // measure 84
0001
0010
0100
1000
,  // measure 85
1000
0001
0100
0010
,  // measure 86
1000
0001
0010
0100
,  // measure 87
0001
0000
0000
0000
;

//---------------dance-single - Standard----------------
#NOTEDATA:;
#CHARTNAME:Standard;
#STEPSTYPE:dance-single;
#DESCRIPTION:Standard;
#CHARTSTYLE:;
#DIFFICULTY:Medium;
#METER:5;
#RADARVALUES:0.301522,0.358871,0.059962,0.023985,0.000000,352.000000,342.000000,10.000000,4.000000,0.000000,0.000000,0.000000,0.000000,0.000000,0.301522,0.358871,0.059962,0.023985,0.000000,352.000000,342.000000,10.000000,4.000000,0.000000,0.000000,0.000000,0.000000,0.000000;
#CREDIT:Standard;
#NOTES:
0000
0000
0000
0000
0000
0000
0000
0000
,
0000
0000
0000
0000
0000
0000
0000
0000
,
0000
0000
0000
0000
0000
0000
0000
0000
,
0000
0000
0000
0000
0000
0000
0001
0000
,
0000
0000
0000
0000
1000
0000
0000
0000
,
0000
0000
0000
0000
1000
0000
0000
0000
,
0000
0000
0000
0000
0001
0000
2000
0000
,
0000
0000
0000
0000
0000
0000
0000
0000
,
0000
0000
3001
0100
0010
0000
1000
0000
,
1000
0000
0100
0000
0010
0000
0100
1000
,
1000
0000
0010
0000
0100
0000
0010
1000
,
0001
0000
0010
0000
0100
0000
0010
0001
,
1000
0000
0100
0000
0020
0000
0030
0200
,
2000
0000
0001
0000
3000
0000
1000
0000
,
1000
0000
0010
0000
1000
0000
0010
0000
,
0001
0000
0100
0000
0001
0000
0100
0000
,
0001
0000
0100
0000
0001
0000
0100
0000
,
1000
0000
0010
0000
0200
0000
0010
0000
,
0000
0000
0010
0000
0000
0000
0010
0000
,
0000
0000
0310
0000
1000
0000
0010
0000
,
0001
0000
0010
0000
0001
0000
0010
0000
,
0001
0000
0010
0000
0001
0000
0010
0000
,
1000
0000
0100
0000
1000
0000
0100
0000
,
0001
0000
0100
0000
0000
0000
0010
0000
,
1000
0000
0011
0000
0001
0000
0100
0010
,
1000
0000
0100
0000
0010
0000
0100
1000
,
0001
0000
0010
0000
0100
0000
0010
0001
,
0001
0000
0010
0000
0100
0000
0010
0001
,
1000
0000
0100
0000
0010
0000
0100
1000
,
1000
0000
0100
0000
0010
0000
0100
1000
,
0001
0000
0100
0000
0010
0000
0100
0001
,
1000
0000
0100
0000
0010
0000
0100
1000
,
0001
0000
0100
0000
0010
0000
0100
0001
,
1000
0000
0100
0000
0010
0000
0100
1000
,
1000
0000
0010
0000
0100
0000
0010
1000
,
0001
0000
0010
0000
0100
0000
0010
0001
,
0001
0000
0100
0000
0000
0000
0010
0000
,
0000
0000
1000
0000
0010
0000
0000
0000
,
1000
0000
0000
0000
0010
0000
0000
0000
,
0001
0000
0000
0000
0010
0000
0000
0000
,
0001
0000
0000
0000
0010
0000
0000
0000
,
0001
0000
0000
0000
0000
0000
0001
1000
,
1000
0000
0100
0000
0011
0000
1000
0001
,
1000
0000
0000
0010
0000
0100
0010
0000
,
1000
0000
1001
0000
1000
0010
1000
0001
,
0000
1000
0000
0100
1000
0000
0100
0000
,
0001
0000
0100
0001
0100
0000
0000
0000
,
0000
1000
0000
0000
0000
0000
0001
0000
,
0000
0000
0000
0000
0000
0000
1000
0100
,
0000
1000
0010
0000
0100
0000
0010
0000
,
1000
0000
0100
0000
0000
1000
0000
0001
,
1000
0100
0100
0000
0011
0000
0001
0000
,
1000
0000
0000
0010
0000
0100
0010
0000
,
1000
0000
0011
0000
0001
0000
0100
0010
,
0000
1000
0000
0100
1000
0000
0100
0000
,
1000
0000
0010
0000
0100
0000
0010
1000
,
0000
0000
0000
0000
0001
0000
0000
0000
,
1100
0000
1000
0000
0001
0010
0000
0001
,
0000
1000
0010
0000
0100
0000
0010
0000
,
0001
0000
0100
0010
1000
0001
0000
0000
,
1000
0100
0100
0000
0011
0000
0001
0000
,
1000
0000
0000
0010
0000
0100
0010
0000
,
1000
0000
0011
0000
0001
0000
0100
0010
,
0000
0001
0000
0100
0001
0000
1000
0000
,
1000
0000
0010
0000
0100
0000
0010
1000
,
0000
1000
0000
0010
0001
0000
0100
0000
,
1100
0000
1000
0000
0001
0000
0000
0000
,
0000
0000
0000
0000
1000
0000
0000
0000
,
0001
0000
0100
0000
0000
0000
0000
0000
,
0110
0000
1000
0000
0100
0010
1000
0010
,
0001
1000
0010
0000
1000
0001
0100
0000
,
0001
1000
0100
0000
1000
0001
0010
0000
,
1000
0000
0100
0000
0010
0000
0100
1000
,
0001
1000
0010
0000
1000
0001
0100
0000
,
0001
1000
0100
0000
1000
0001
0010
0000
,
1000
0001
0010
0000
0001
1000
0100
0000
,
1000
0001
0010
0000
0001
1000
0100
0000
,
0001
1000
0100
0000
1000
0001
0010
0000
,
1000
0001
0100
0000
0001
1000
0010
0000
,
1000
0001
0010
0000
0001
1000
0100
0000
,
1000
0000
0100
0000
0010
0000
0100
1000
,
0001
1000
0010
0000
1000
0001
0100
0000
,
1000
0001
0100
0000
0001
1000
0010
0000
,
1000
0001
0100
0000
0001
1000
0010
0000
,
0001
1000
0100
0000
1000
0001
0010
0000
,
1000
0000
0000
0000
0100
0000
0000
0000
,
;

//---------------dance-single - Heavy----------------
#NOTEDATA:;
#CHARTNAME:Heavy;
#STEPSTYPE:dance-single;
#DESCRIPTION:Heavy;
#CHARTSTYLE:;
#DIFFICULTY:Hard;
#METER:6;
#RADARVALUES:0.352061,0.358871,0.077950,0.023985,0.000000,411.000000,398.000000,13.000000,4.000000,0.000000,0.000000,0.000000,0.000000,0.000000,0.352061,0.358871,0.077950,0.023985,0.000000,411.000000,398.000000,13.000000,4.000000,0.000000,0.000000,0.000000,0.000000,0.000000;
#CREDIT:Heavy;
#NOTES:
0000
0000
0000
0000
0000
0000
0000
0000
,
0000
0000
0000
0000
0000
0000
0000
0000
,
0000
0000
0000
0000
0000
0000
0000
0000
,
0000
0000
0000
0000
0000
0000
0001
0000
,
0000
0000
0001
0000
0010
0000
0000
0000
,
0000
0000
0001
0000
0010
0000
0000
0000
,
0000
0000
0001
0000
0010
0000
0020
0000
,
0000
0000
0001
0000
0000
0000
0000
0000
,
0000
0000
0031
0010
0100
0000
1000
0010
,
1000
0000
0100
1000
0100
0000
0010
0100
,
0001
0000
0100
0001
0100
0000
0010
0100
,
1000
0000
0010
1000
0010
0000
0100
0010
,
0001
0000
0010
0000
0200
0000
0300
2000
,
0002
0000
1000
0000
0003
0000
0010
0000
,
1000
0000
0010
0000
1000
0000
0001
0100
,
1000
0000
0010
0000
1000
0000
0001
0100
,
1000
0000
0010
0000
1000
0000
0001
0100
,
1000
0000
0100
0000
2000
0000
0001
0000
,
0000
0000
0100
0000
0000
0000
0001
0000
,
0000
0000
3100
0000
0001
0000
1000
0010
,
1000
0000
0010
0000
1000
0000
0001
0100
,
0001
0000
0010
0000
0001
0000
1000
0100
,
1000
0000
0010
0000
1000
0000
0001
0100
,
1000
0000
0010
0000
0000
0000
0100
0000
,
0001
0000
1010
0000
1000
0100
0010
1000
,
1000
0000
0100
1000
0100
0000
0010
0100
,
1000
0000
0010
1000
0010
0000
0100
0010
,
1000
0000
0010
1000
0010
0000
0100
0010
,
0001
0000
0100
0001
0100
0000
0010
0100
,
1000
0000
0100
1000
0100
0000
0010
0100
,
1000
0000
0100
1000
0100
0000
0010
0100
,
1000
0000
0100
1000
0100
0000
0010
0100
,
1000
0000
0100
1000
0100
0000
0010
0100
,
1000
0000
0100
1000
0100
0000
0010
0100
,
0001
0000
0100
0001
0100
0000
0010
0100
,
0001
0000
0010
0001
0010
0000
0100
0010
,
1000
0000
0010
0000
0000
0000
0100
0000
,
0000
0000
0001
0000
1000
0000
0010
0000
,
0001
0000
0100
0000
0001
0000
0000
0000
,
1000
0000
0100
0000
1000
0000
0000
0000
,
1000
0000
0100
0000
1000
0000
0000
0000
,
0001
0000
0000
0000
0000
0000
0001
0010
,
0001
0010
0001
0000
1010
0000
0001
0010
,
0001
0000
0000
1000
0000
0010
0100
0010
,
1000
0000
1100
0000
0001
0100
0001
1000
,
0000
0001
0000
1000
0001
0100
0010
0000
,
1000
0000
0001
0100
0001
0100
0000
0000
,
0000
0001
0100
0000
0000
0000
0010
0000
,
0000
0000
0000
0000
0000
0000
1000
0100
,
1000
0001
0100
0000
0001
0000
1000
0000
,
1000
0000
0001
1000
0000
0001
0000
0100
,
0001
0100
0100
0000
1010
0000
0001
0000
,
0001
0000
0000
1000
0000
0010
0100
0010
,
0001
0000
1010
0000
1000
0100
0010
1000
,
0000
0001
0000
1000
0001
0100
0010
0000
,
1100
0000
0001
0000
0100
0010
1000
0001
,
0000
0000
0000
0000
1000
0000
1000
0000
,
0101
0000
0001
0100
0010
1000
0000
0001
,
1000
0001
0100
0000
0001
0000
1000
0000
,
0110
0000
1000
0010
0100
0001
0000
0010
,
0001
0100
0100
0000
1010
0000
0001
0000
,
0001
0000
0000
1000
0000
0010
0100
0010
,
0001
0000
1010
0000
1000
0100
0010
1000
,
0000
0001
0000
0100
0001
1000
0001
0000
,
1100
0000
0001
0000
0100
0010
1000
0001
,
0000
0001
0010
0001
1000
0000
0001
0000
,
0101
0000
0001
0000
0100
0010
0000
0000
,
0000
0000
0001
0000
0010
0000
0000
0000
,
0001
0000
0100
0000
0000
0000
0000
0000
,
1100
0000
1000
0000
0100
1000
0010
0100
,
1000
0001
0010
0000
0100
1000
0010
0000
,
1000
0001
0010
0000
0100
1000
0010
0000
,
1000
0000
0100
1000
0100
0000
0010
0100
,
1000
0001
0010
0000
0100
1000
0010
0000
,
0001
1000
0100
0000
0010
0001
0100
0000
,
0001
1000
0010
0000
0100
0001
0010
0000
,
0001
1000
0100
0000
0010
0001
0100
0000
,
1000
0001
0100
0000
0010
1000
0100
0000
,
0001
1000
0010
0000
0100
0001
0010
0000
,
1000
0001
0100
0000
0010
1000
0100
0000
,
1000
0000
0100
1000
0100
0000
0010
0100
,
1000
0001
0010
0000
0100
1000
0010
0000
,
0001
1000
0010
0000
0100
0001
0010
0000
,
0001
1000
0100
0000
0010
0001
0100
0000
,
1000
0001
0010
0000
0100
1000
0010
0000
,
1000
0000
0001
0000
0100
0000
0000
0000
,
;
