#VERSION:0.83;
#TITLE:Solid State Invincible - OmniMan vs Bardock;
#SUBTITLE:;
#ARTIST:Death Battle;
#TITLETRANSLIT:;
#SUBTITLETRANSLIT:;
#ARTISTTRANSLIT:;
#GENRE:;
#ORIGIN:;
#CREDIT:Gorilla v1.1.3 (Dancing Monkeys v1.06);
#BANNER:maxresdefault.png;
#BACKGROUND:bardock-vs-omni-man-fanart-by-me-just-to-celebrate-dbs-v0-is19sn7y2pjd1.png;
#PREVIEWVID:;
#JACKET:;
#CDIMAGE:;
#DISCIMAGE:;
#LYRICSPATH:;
#CDTITLE:;
#MUSIC:Solid State Invincible - Lyrics (Omniman vs Bardock - Death Battle).mp3;
#OFFSET:-0.439274;
#SAMPLESTART:46.742130;
#SAMPLELENGTH:12.000000;
#SELECTABLE:YES;
#BPMS:0.000=139.948;
#STOPS:;
#DELAYS:;
#WARPS:;
#TIMESIGNATURES:0.000=4=4;
#TICKCOUNTS:0.000=4;
#COMBOS:0.000=1;
#SPEEDS:0.000=1.000=0.000=0;
#SCROLLS:0.000=1.000;
#FAKES:;
#LABELS:0.000=Song Start;
#BGCHANGES:;
#KEYSOUNDS:;
#ATTACKS:
;

//---------------dance-single - Basic----------------
#NOTEDATA:;
#CHARTNAME:Basic;
#STEPSTYPE:dance-single;
#DESCRIPTION:Basic;
#CHARTSTYLE:;
#DIFFICULTY:Easy;
#METER:2;
#RADARVALUES:0.089581,0.096292,0.000000,0.004153,0.000000,151.000000,151.000000,0.000000,1.000000,0.000000,0.000000,0.000000,0.000000,0.000000,0.089581,0.096292,0.000000,0.004153,0.000000,151.000000,151.000000,0.000000,1.000000,0.000000,0.000000,0.000000,0.000000,0.000000;
#CREDIT:Basic;
#NOTES:
// measure 0
0000
0000
0000
0000
,  // measure 1
0000
0000
0000
0000
,  // measure 2
0000
0000
0000
0000
,  // measure 3
0000
0000
0000
0000
,  // measure 4
0000
0000
0000
0000
,  // measure 5
0000
0000
0000
0000
,  // measure 6
0000
0000
0000
0000
,  // measure 7
0000
0000
0000
0000
,  // measure 8
0000
0000
0000
0000
,  // measure 9
0000
0000
0000
0000
,  // measure 10
0000
0000
0000
0000
,  // measure 11
0000
0000
0000
0000
,  // measure 12
1000
0000
1000
0000
,  // measure 13
0010
0000
0100
0000
,  // measure 14
0001
0000
0001
0000
,  // measure 15
1000
0000
0001
0000
,  // measure 16
1000
0000
1000
0000
,  // measure 17
0001
0000
0100
0000
,  // measure 18
1000
0000
0010
0000
,  // measure 19
0001
0000
0100
0000
,  // measure 20
0001
0000
0000
0000
,  // measure 21
0001
0000
0100
0000
,  // measure 22
1000
0000
0100
0000
,  // measure 23
0001
0000
0001
0000
,  // measure 24
0001
0000
0001
0000
,  // measure 25
0001
0000
0100
0000
,  // measure 26
1000
0000
0100
0000
,  // measure 27
1000
1000
0000
0000
,  // measure 28
0000
0000
0000
0000
,  // measure 29
0001
0000
0001
0000
,  // measure 30
1000
0000
1000
0000
,  // measure 31
0010
0000
0010
0000
,  // measure 32
0001
0000
0100
0000
,  // measure 33
0001
0000
1000
0000
,  // measure 34
0001
0000
0010
0000
,  // measure 35
0100
0000
1000
0000
,  // measure 36
0001
0000
0000
0000
,  // measure 37
0001
0000
0001
0000
,  // measure 38
0010
0000
0010
0000
,  // measure 39
1000
0000
1000
0000
,  // measure 40
0001
0000
0001
0000
,  // measure 41
0100
0000
0100
0000
,  // measure 42
1000
0000
1000
0000
,  // measure 43
0010
0000
0010
0000
,  // measure 44
1000
0000
0000
0000
,  // measure 45
0001
0000
0010
0000
,  // measure 46
1000
0000
1000
0000
,  // measure 47
0001
0000
0100
0000
,  // measure 48
1000
0000
1000
0000
,  // measure 49
0001
0000
0010
0000
,  // measure 50
1000
0000
1000
0000
,  // measure 51
0001
0000
0100
0000
,  // measure 52
1000
0000
0000
0000
,  // measure 53
0001
0000
0001
0000
,  // measure 54
0010
0000
0010
0000
,  // measure 55
0100
0000
0100
0000
,  // measure 56
1000
0000
1000
0000
,  // measure 57
0001
0000
0001
0000
,  // measure 58
1000
0000
1000
0000
,  // measure 59
0100
0000
0100
0000
,  // measure 60
0001
0000
0001
0000
,  // measure 61
0001
0000
1000
0000
,  // measure 62
0010
0000
1000
0000
,  // measure 63
0100
0000
0010
0000
,  // measure 64
1000
0000
0010
0000
,  // measure 65
0100
0000
0001
0000
,  // measure 66
1000
0000
0100
0000
,  // measure 67
0001
0000
0100
0000
,  // measure 68
1000
0000
0010
0000
,  // measure 69
0001
0000
0100
0000
,  // measure 70
1000
0000
0000
0000
,  // measure 71
0001
0000
0100
0000
,  // measure 72
1000
0000
0010
0000
,  // measure 73
0001
0000
0100
0000
,  // measure 74
0001
0000
0100
0000
,  // measure 75
1000
0000
1000
0000
,  // measure 76
0001
0000
0000
0000
,  // measure 77
1000
0000
1000
0000
,  // measure 78
0001
0000
0001
0000
,  // measure 79
0100
0000
0100
0000
,  // measure 80
1000
0000
1000
0000
,  // measure 81
0100
0000
0100
0000
,  // measure 82
0001
0000
0001
0000
,  // measure 83
0100
0000
0100
0000
,  // measure 84
1000
0000
1000
0000
,  // measure 85
0010
0000
0001
0000
,  // measure 86
1000
0000
0010
0000
,  // measure 87
1000
0000
0100
0000
,  // measure 88
1000
0000
0010
0000
,  // measure 89
1000
0000
0010
0000
,  // measure 90
0001
0000
0100
0000
,  // measure 91
2000
0000
0000
0000
,  // measure 92
0000
0000
0000
3000
;

//---------------dance-single - Basic----------------
#NOTEDATA:;
#CHARTNAME:;
#STEPSTYPE:dance-single;
#DESCRIPTION:Basic;
#CHARTSTYLE:;
#DIFFICULTY:Medium;
#METER:2;
#RADARVALUES:0.176789,0.216774,0.000000,0.037375,0.000000,298.000000,298.000000,0.000000,9.000000,0.000000,0.000000,0.000000,0.000000,0.000000,0.176789,0.216774,0.000000,0.037375,0.000000,298.000000,298.000000,0.000000,9.000000,0.000000,0.000000,0.000000,0.000000,0.000000;
#CREDIT:;
#NOTES:
// measure 0
0000
0000
0000
0000
,  // measure 1
0000
0000
0000
0000
,  // measure 2
0000
0000
0000
0000
,  // measure 3
0000
0000
0000
0000
,  // measure 4
0000
0000
0000
0000
,  // measure 5
0000
0000
0000
0000
,  // measure 6
0000
0000
0000
0000
,  // measure 7
0000
0000
0000
0000
,  // measure 8
0000
0000
0000
0000
,  // measure 9
0000
0000
0000
0000
,  // measure 10
0000
0000
0000
0000
,  // measure 11
0000
0000
0000
0000
,  // measure 12
1000
1000
1000
1000
,  // measure 13
0010
0001
0100
0010
,  // measure 14
0001
0010
0001
1000
,  // measure 15
1000
0100
0001
0100
,  // measure 16
1000
0010
1000
0010
,  // measure 17
0001
0001
0100
0010
,  // measure 18
1000
1000
0010
0100
,  // measure 19
0001
0010
0100
0010
,  // measure 20
0002
0000
0000
0003
,  // measure 21
0001
0010
0100
0010
,  // measure 22
1000
0010
0100
0010
,  // measure 23
0001
0010
0001
1000
,  // measure 24
0001
1000
0001
0010
,  // measure 25
0001
0001
0100
0010
,  // measure 26
1000
0010
0100
0100
,  // measure 27
1000
0002
0000
0000
,  // measure 28
0003
0000
0000
0000
,  // measure 29
0001
0001
0001
0001
,  // measure 30
1000
1000
1000
1000
,  // measure 31
0010
0010
0010
0010
,  // measure 32
0001
0010
0100
0000
,  // measure 33
0001
0001
1000
0001
,  // measure 34
0001
0010
0010
0100
,  // measure 35
0100
0001
1000
0001
,  // measure 36
0001
0000
0000
0000
,  // measure 37
0001
0001
0001
0001
,  // measure 38
0010
0010
0010
0010
,  // measure 39
1000
1000
1000
1000
,  // measure 40
0001
0001
0001
0001
,  // measure 41
0100
0100
0100
0100
,  // measure 42
1000
1000
1000
1000
,  // measure 43
0010
0010
0010
0010
,  // measure 44
2000
0000
3000
0000
,  // measure 45
0001
0000
0010
0000
,  // measure 46
1000
0000
1000
0000
,  // measure 47
0001
0000
0100
0000
,  // measure 48
1000
0000
1000
0000
,  // measure 49
0001
0000
0010
0000
,  // measure 50
1000
0000
1000
0000
,  // measure 51
0001
0000
0100
0000
,  // measure 52
2000
0000
3000
0000
,  // measure 53
0001
0001
0001
0001
,  // measure 54
0010
0010
0010
0010
,  // measure 55
0100
0100
0100
0100
,  // measure 56
1000
1000
1000
1000
,  // measure 57
0001
0001
0001
0001
,  // measure 58
1000
1000
1000
1000
,  // measure 59
0100
0100
0100
0100
,  // measure 60
0001
0001
0001
0000
,  // measure 61
0001
0000
1000
0000
,  // measure 62
0010
0000
1000
0000
,  // measure 63
0100
0000
0010
0000
,  // measure 64
1000
0000
0010
0000
,  // measure 65
0100
0100
0001
0001
,  // measure 66
1000
1000
0100
0100
,  // measure 67
0001
0001
0100
0100
,  // measure 68
1000
1000
0010
0010
,  // measure 69
0001
0001
0100
0100
,  // measure 70
0000
0000
0000
0000
,  // measure 71
0001
0000
0100
0000
,  // measure 72
1000
0000
0010
0000
,  // measure 73
0001
0000
0100
0000
,  // measure 74
0001
0000
0100
0000
,  // measure 75
1000
0000
1000
0000
,  // measure 76
0002
0000
0003
0000
,  // measure 77
1000
1000
1000
1000
,  // measure 78
0001
0001
0001
0001
,  // measure 79
0100
0100
0100
0100
,  // measure 80
1000
1000
1000
1000
,  // measure 81
0100
0100
0100
0100
,  // measure 82
0001
0001
0001
0001
,  // measure 83
0100
0100
0100
0100
,  // measure 84
1000
1000
1000
1000
,  // measure 85
0010
0010
0001
0001
,  // measure 86
1000
1000
0010
0010
,  // measure 87
1000
1000
0100
0100
,  // measure 88
1000
1000
0010
0010
,  // measure 89
1000
1000
0010
0010
,  // measure 90
0001
0001
0100
0100
,  // measure 91
2000
0000
0000
0000
,  // measure 92
0000
0000
0000
3000
,  // measure 93
0001
0000
1000
0000
,  // measure 94
1000
0000
0100
0000
,  // measure 95
0001
0000
0010
0000
,  // measure 96
0001
0000
0100
0000
,  // measure 97
0001
0000
0100
0000
,  // measure 98
1000
0000
0100
0000
,  // measure 99
1000
0000
0000
0000
,  // measure 100
0000
0000
0000
0000
,  // measure 101
0001
0000
0000
0000
,  // measure 102
1000
0000
0000
0000
,  // measure 103
0010
0000
0000
0000
,  // measure 104
1000
0000
0000
0000
,  // measure 105
0001
0000
0000
2000
,  // measure 106
0000
0000
0000
3000
,  // measure 107
0000
1000
0000
0000
,  // measure 108
0001
0000
0000
0000
,  // measure 109
1000
1000
1000
1000
,  // measure 110
0010
0001
0001
0001
,  // measure 111
0001
2000
0000
0000
,  // measure 112
3000
0000
0000
0000
,  // measure 113
0001
0001
0001
0001
,  // measure 114
1000
1000
1000
0010
,  // measure 115
0002
0000
0000
0000
,  // measure 116
0003
0000
0000
0000
;
