#TITLE:snuggle song - schnuffel bunny (sped up reverb);
#SUBTITLE:;
#ARTIST:Dancing Monkeys Project;
#TITLETRANSLIT:;
#SUBTITLETRANSLIT:;
#ARTISTTRANSLIT:;
#GENRE:;
#CREDIT:Gorilla v1.1.3 (Dancing Monkeys v1.06);
#BANNER:maxresdefault.png;
#BACKGROUND:tumblr_mt2wjezEuV1sivu0so1_1280.png;
#LYRICSPATH:;
#CDTITLE:;
#MUSIC:snuggle song - schnuffel bunny (sped up reverb).mp3;
#OFFSET:-0.583146;
#SAMPLESTART:41.908146;
#SAMPLELENGTH:12.000000;
#SELECTABLE:YES;
#BPMS:0.000000=145.190567
;
#STOPS:
;
#BGCHANGES:;
#KEYSOUNDS:;
#ATTACKS:;

//---------------dance-single - Basic----------------
#NOTES:
     dance-single:
     Basic:
     Easy:
     3:
     0.177729,0.174223,0.000000,0.000000,0.000000,192.000000,192.000000,0.000000,0.000000,0.000000,0.000000,0.177729,0.174223,0.000000,0.000000,0.000000,192.000000,192.000000,0.000000,0.000000,0.000000,0.000000:
// measure 0
0000
0000
0000
1000
,  // measure 1
0000
0000
0000
0001
,  // measure 2
0000
0000
0000
0001
,  // measure 3
0000
0000
0000
0010
,  // measure 4
0000
0000
0000
1000
,  // measure 5
0000
0000
0000
0010
,  // measure 6
0000
0000
0000
0010
,  // measure 7
0000
0010
0010
0000
,  // measure 8
0000
0000
0001
0001
,  // measure 9
0001
0000
0010
0000
,  // measure 10
0001
0000
0010
0000
,  // measure 11
0001
0000
0000
0000
,  // measure 12
0000
0001
0000
1000
,  // measure 13
1000
0001
0100
0100
,  // measure 14
0001
0001
0010
0010
,  // measure 15
0010
0001
0001
0001
,  // measure 16
0001
1000
1000
1000
,  // measure 17
0001
0001
0001
0001
,  // measure 18
0001
0001
0100
0100
,  // measure 19
0001
0001
0010
0010
,  // measure 20
1000
1000
0001
0001
,  // measure 21
1000
1000
0100
0100
,  // measure 22
0001
0001
0010
0010
,  // measure 23
0001
0001
0100
0100
,  // measure 24
0001
0001
0010
0010
,  // measure 25
1000
1000
0010
0010
,  // measure 26
0001
0001
0010
0010
,  // measure 27
0001
0001
0000
0100
,  // measure 28
0000
0000
0000
0001
,  // measure 29
0000
1000
1000
1000
,  // measure 30
1000
1000
0010
1000
,  // measure 31
1000
0001
0001
0001
,  // measure 32
0001
0000
0010
0010
,  // measure 33
0010
0001
0001
0001
,  // measure 34
0001
1000
1000
1000
,  // measure 35
1000
0100
0100
0100
,  // measure 36
0001
0001
0001
0001
,  // measure 37
1000
0001
0100
0100
,  // measure 38
0001
0001
0010
0010
,  // measure 39
1000
1000
1000
0100
,  // measure 40
0100
0100
0001
0001
,  // measure 41
0001
0100
0100
0100
,  // measure 42
0100
1000
1000
1000
,  // measure 43
1000
0010
0010
0010
,  // measure 44
0000
0000
0000
1000
,  // measure 45
1000
0001
0001
0100
,  // measure 46
0100
1000
1000
0010
,  // measure 47
0010
0001
0001
0100
,  // measure 48
0100
1000
1000
0100
,  // measure 49
0100
1000
1000
0010
,  // measure 50
0010
0000
0100
0100
,  // measure 51
0001
0001
0100
0100
,  // measure 52
0000
0000
0000
0001
,  // measure 53
1000
0001
0000
0100
,  // measure 54
1000
0001
0010
0010
,  // measure 55
0001
1000
0010
0010
,  // measure 56
1000
0001
0010
0010
,  // measure 57
1000
1000
0010
0100
,  // measure 58
0001
0001
0001
0010
,  // measure 59
0010
1000
0100
0100
;

//---------------dance-single - Standard----------------
#NOTES:
     dance-single:
     Standard:
     Medium:
     4:
     0.296215,0.294017,0.006480,0.000000,0.000000,320.000000,319.000000,1.000000,0.000000,0.000000,0.000000,0.296215,0.294017,0.006480,0.000000,0.000000,320.000000,319.000000,1.000000,0.000000,0.000000,0.000000:
0000
0000
0000
0000
0000
0000
0000
0000
,
0000
0000
0000
0000
0000
0000
0000
0000
,
0000
0000
0000
0000
0000
0000
0000
0000
,
0000
0000
0000
0000
0000
0000
0000
0000
,
0001
0000
0100
0000
0010
0000
0000
0000
,
1000
0000
1000
0000
0000
0000
0000
0000
,
0001
0000
0000
0000
0100
0000
0000
0000
,
1000
0000
1000
0000
0000
0000
0000
0000
,
0000
0000
1000
0000
0010
0000
0100
0000
,
1000
0000
0010
0000
1000
0000
0000
0000
,
0001
0000
0000
0000
0100
0000
0000
0000
,
1000
0000
0000
0000
0000
0000
0000
0000
,
0000
0000
1000
0000
1000
0000
0100
0000
,
0001
0000
0100
0000
0001
0000
0100
0000
,
1000
0000
0010
0000
1000
0000
0010
0000
,
0001
0000
0100
0000
0001
0000
0100
0000
,
1000
0000
0010
0000
1000
0000
0010
0000
,
1000
0000
0010
0000
1000
0000
0010
0000
,
0001
0000
0100
0000
0001
0000
0100
0000
,
1000
0000
0100
0000
1000
0000
0100
0000
,
0001
0000
0010
0000
0000
0000
0001
0000
,
0001
0000
0100
0000
0001
0000
0100
0000
,
1000
0000
0010
0000
1000
0000
0010
0000
,
0001
0000
0100
0000
0001
0000
0100
0000
,
1000
0000
0010
0000
1000
0000
0010
0000
,
1000
0000
0000
0000
0100
0000
0010
0000
,
1000
0000
0010
0000
1000
0000
0010
0000
,
1000
0000
0001
0000
0010
0000
0001
0000
,
0000
0000
1000
0000
1000
0000
0100
0000
,
1000
0000
0001
0000
0010
0000
0001
0000
,
1000
0000
0000
0000
0100
0000
0010
0000
,
0001
0000
0100
0000
0001
0000
0100
0000
,
1000
0000
0010
0000
1000
0000
0010
0000
,
0001
0000
0100
0000
0001
0000
0100
0000
,
1000
0000
0010
0000
1000
0000
0010
0000
,
1000
0000
0010
0000
0100
0000
0010
0000
,
0000
0000
1000
0000
0010
0000
0100
0000
,
0001
0000
0100
0000
0001
0000
0100
0000
,
1000
0000
0100
0000
0010
0000
0100
0000
,
0001
0000
0100
0000
0001
0000
0100
0000
,
0001
0000
0010
0000
0001
0000
0010
0000
,
0001
0000
0010
0000
0100
0000
1000
0000
,
1000
0000
0001
0000
0010
0000
0001
0000
,
1000
0000
0100
0000
1000
0000
0000
0000
,
0000
0000
0000
0000
0001
0000
0010
0000
,
0001
0000
0100
0000
0001
0000
0100
0000
,
0001
0000
0010
0000
0001
0000
0010
0000
,
0001
0000
0100
0000
0001
0000
0100
0000
,
1000
0000
0100
0000
1000
0000
0100
0000
,
0001
0000
0010
0000
0001
0000
0010
0000
,
1000
0000
0010
0000
1000
0000
0010
0000
,
1000
0000
0001
0000
0010
0000
0001
0000
,
0001
0000
0010
0000
0000
0000
0001
0000
,
0001
0000
0100
0000
0001
0000
0100
0000
,
1000
0000
0010
0000
1000
0000
0010
0000
,
1000
0000
0010
0000
1000
0000
0010
0000
,
0001
0000
0100
0000
0001
0000
0100
0000
,
1000
0000
1000
0000
0010
0000
0100
0000
,
1000
0000
0100
0000
0010
0000
0100
0000
,
1000
0000
0001
0000
0010
0000
0001
0000
,
0000
0000
1000
0000
0010
0000
0100
0000
,
0001
0000
0100
0000
0001
0000
0100
0000
,
1000
0000
0010
0000
1000
0000
0010
0000
,
0001
0000
0100
0000
0001
0000
0100
0000
,
0001
0000
0010
0000
0001
0000
0010
0000
,
0001
0000
0010
0000
0100
0000
1000
0000
,
1000
0000
0001
0000
0010
0000
0001
0000
,
0001
0000
0100
0000
0001
0000
0100
0000
,
0001
0000
0010
0000
0000
0000
0001
0000
,
0001
0000
0100
0000
0001
0000
0100
0000
,
0001
0000
0100
0000
0001
0000
0100
0000
,
1000
0000
0000
0000
0100
0000
0010
0000
,
0001
0000
0100
0000
0001
0000
0100
0000
,
0001
0000
0100
0000
0001
0000
0100
0000
,
1000
0000
0010
0000
1000
0000
0010
0000
,
1000
0000
0001
0000
0010
0000
0001
0000
,
0000
0000
1000
0000
1000
0000
0100
0000
,
0001
0000
0100
0000
0001
0000
0100
0000
,
1000
0000
0010
0000
1000
0000
0010
0000
,
0001
0000
0100
0000
0001
0000
0100
0000
,
0001
0000
0010
0000
0100
0000
1000
0000
,
1000
0000
0100
0000
0010
0000
0100
0000
,
0001
0000
0100
0000
0001
0000
0100
0000
,
0001
0000
0100
0000
0001
0000
0100
0000
,
0000
0000
1000
0000
0100
0000
0101
0000
,
0001
0000
0100
0000
0001
0000
0100
0000
,
1000
0000
0100
0000
0010
0000
0100
0000
,
0001
0000
0100
0000
0001
0000
0100
0000
,
1000
0000
0100
0000
1000
0000
0100
0000
,
0001
0000
0010
0000
0100
0000
1000
0000
,
1000
0000
0001
0000
0010
0000
0001
0000
,
;

//---------------dance-single - Heavy----------------
#NOTES:
     dance-single:
     Heavy:
     Hard:
     5:
     0.330465,0.352820,0.019439,0.000000,0.000000,357.000000,354.000000,3.000000,0.000000,0.000000,0.000000,0.330465,0.352820,0.019439,0.000000,0.000000,357.000000,354.000000,3.000000,0.000000,0.000000,0.000000:
0000
0000
0000
0000
0000
0000
1000
0000
,
0000
0000
0000
0000
0000
0000
0001
0000
,
0000
0000
0000
0000
0000
0000
1000
0000
,
0000
0000
0000
0000
0000
0000
1000
0000
,
0001
0000
0010
0000
0100
0000
0000
0000
,
1000
0000
1000
0000
0100
0000
0000
0000
,
1000
0000
0000
0000
0010
0000
1000
0000
,
1000
0000
1000
0000
0100
0000
0000
0000
,
0000
0000
0001
0000
1000
0000
0100
0000
,
0001
0000
0010
0000
0001
0000
0010
0000
,
1000
0000
0000
0000
0010
0000
1000
0000
,
1000
0000
0000
0000
0000
0000
0000
0000
,
0001
0000
0010
0000
0010
0000
0100
0000
,
0001
0000
0100
0000
0010
0000
0100
0000
,
1000
0000
0001
0000
0010
0000
1000
0010
,
0001
0000
0100
0000
0010
0000
0100
0000
,
1000
0000
0010
0000
0100
0000
0010
0000
,
1000
0000
0001
0000
0010
0000
1000
0010
,
0001
0000
0100
0000
0010
0000
0100
0000
,
1000
0000
0100
0000
0010
0000
0100
0000
,
1000
0000
0001
0000
0000
0000
0010
0000
,
0001
0000
0100
0000
0010
0000
0100
0000
,
1000
0000
0100
0000
0010
0000
0100
0000
,
0001
0000
0100
0000
0010
0000
0100
0000
,
1000
0000
0010
0000
0100
0000
0010
0000
,
1000
0000
0001
0000
1000
0000
0010
0000
,
1000
0000
0001
0000
0010
0000
1000
0010
,
1000
0000
0001
0000
0010
0000
0001
0000
,
0001
0000
0010
0000
0010
0000
0100
0000
,
1000
0000
0001
0000
0010
0000
0001
0000
,
1000
0000
0001
0000
1000
0000
0010
0000
,
0001
0000
0100
0000
0010
0000
0100
0000
,
1000
0000
0001
0000
0010
0000
1000
0010
,
0001
0000
0100
0000
0010
0000
0100
0000
,
1000
0000
0010
0000
0100
0000
0010
0000
,
0001
0000
1000
0000
0010
0000
0100
0000
,
0000
0000
1000
0000
0001
0000
0100
0010
,
0001
0000
0100
0000
0010
0000
0100
0000
,
1000
0000
1001
0000
1000
0001
1000
0000
,
0001
0000
0100
0000
0010
0000
0100
0000
,
0001
0000
0010
0000
0100
0000
0010
0000
,
0001
0000
0010
0000
0100
0000
1000
1000
,
1000
0000
0001
0000
0010
0000
0001
0000
,
0001
0000
0010
0000
0001
0000
0010
0000
,
0000
0000
0000
0000
1000
0000
0001
0000
,
0001
0000
0100
0000
0010
0000
0100
0000
,
0001
0000
0010
0000
0100
0000
0010
0000
,
0001
0000
0100
0000
0010
0000
0100
0000
,
0001
0000
0010
0000
0100
0000
0010
0000
,
1000
0000
0010
0000
0100
0000
0010
0000
,
1000
0000
0001
0000
0010
0000
1000
0010
,
1000
0000
0001
0000
0010
0000
0001
0000
,
1000
0000
0001
0000
0000
0000
0010
0000
,
0001
0000
0100
0000
0010
0000
0100
0000
,
1000
0000
0010
0000
0100
0000
0010
0000
,
1000
0000
0100
0000
0010
0000
0100
0000
,
1000
0000
0010
0000
0100
0000
0010
0000
,
1000
0100
0100
0000
0010
0000
0100
0000
,
1000
0000
0001
0000
0100
0000
0001
0001
,
1000
0000
0001
0000
0010
0000
0001
0000
,
0000
0000
1000
0000
0001
0000
0100
0010
,
0001
0000
0100
0000
0010
0000
0100
0000
,
1000
0000
0001
0000
0010
0000
1000
0010
,
0001
0000
0100
0000
0010
0000
0100
0000
,
0001
0000
0010
0000
0100
0000
0010
0000
,
0001
0000
0010
0000
0100
0000
1000
1000
,
1000
0000
0001
0000
0010
0000
0001
0000
,
0001
0000
0100
0000
0010
0000
0100
0000
,
1000
0000
0001
0000
0000
0000
0010
0000
,
0001
0000
0100
0000
0010
0000
0100
0000
,
1000
0000
0100
0000
0010
0000
0100
0000
,
1000
0000
0001
0000
1000
0000
0010
0000
,
0001
0000
0100
0000
0010
0000
0100
0000
,
0001
0000
0100
0000
0010
0000
0100
0000
,
1000
0000
0001
0000
0010
0000
1000
0010
,
1000
0000
0001
0000
0010
0000
0001
0000
,
0001
0000
0010
0000
0010
0000
0100
0000
,
0001
0000
0100
0000
0010
0000
0100
0000
,
1000
0000
0001
0000
0010
0000
1000
0010
,
0001
0000
0100
0000
0010
0000
0100
0000
,
0001
0000
0010
0000
0100
0000
1000
1000
,
1000
0000
1001
0000
1000
0001
1000
0000
,
0001
0000
0100
0000
0010
0000
0100
0000
,
0001
0000
0100
0000
0010
0000
0100
0000
,
0000
0000
1000
0000
0100
0000
0110
0000
,
0001
0000
0100
0000
0010
0000
0100
0000
,
1000
0000
0001
0000
0100
0000
0001
0001
,
0001
0000
0100
0000
0010
0000
0100
0000
,
0001
0000
0100
0000
0010
0000
0100
0000
,
0001
0000
0010
0000
0100
0000
1000
1000
,
1000
0000
0001
0000
0010
0000
0001
0000
,
;
