#VERSION:0.83;
#TITLE:MADDragon Ball Super X Naruto Shippuden Opening 16Silhouette[Fanmade];
#SUBTITLE:;
#ARTIST:Dancing Monkeys Project;
#TITLETRANSLIT:;
#SUBTITLETRANSLIT:;
#ARTISTTRANSLIT:;
#GENRE:;
#ORIGIN:;
#CREDIT:Gorilla v1.1.3 (Dancing Monkeys v1.06);
#BANNER:sddefault.png;
#BACKGROUND:R7N0Ax8g.png;
#PREVIEWVID:;
#JACKET:;
#CDIMAGE:;
#DISCIMAGE:;
#LYRICSPATH:;
#CDTITLE:;
#MUSIC:MADDragon Ball Super X Naruto Shippuden Opening 16Silhouette[Fanmade].mp3;
#OFFSET:-0.520816;
#SAMPLESTART:34.087708;
#SAMPLELENGTH:12.000000;
#SELECTABLE:YES;
#BPMS:0.000=178.748;
#STOPS:;
#DELAYS:;
#WARPS:;
#TIMESIGNATURES:0.000=4=4;
#TICKCOUNTS:0.000=4;
#COMBOS:0.000=1;
#SPEEDS:0.000=1.000=0.000=0;
#SCROLLS:0.000=1.000;
#FAKES:;
#LABELS:0.000=Song Start;
#BGCHANGES:;
#KEYSOUNDS:;
#ATTACKS:
;

//---------------dance-single - Basic----------------
#NOTEDATA:;
#CHARTNAME:Basic;
#STEPSTYPE:dance-single;
#DESCRIPTION:Basic;
#CHARTSTYLE:;
#DIFFICULTY:Easy;
#METER:1;
#RADARVALUES:0.294327,0.292552,0.009036,0.081327,0.000000,228.000000,227.000000,1.000000,9.000000,0.000000,0.000000,0.000000,0.000000,0.000000,0.294327,0.292552,0.009036,0.081327,0.000000,228.000000,227.000000,1.000000,9.000000,0.000000,0.000000,0.000000,0.000000,0.000000;
#CREDIT:Basic;
#NOTES:
1000
0100
1000
0001
,
0010
1000
0010
0000
,
0000
1000
1000
0010
,
0100
0001
0100
0001
,
0100
0001
0010
0100
,
0010
1000
0001
0100
,
0001
0010
0100
0010
,
1000
0001
0010
0100
,
0001
0010
0100
0001
,
0010
0100
0010
0001
,
0010
0010
0100
0100
,
0200
0000
0000
0300
,
1000
0010
0001
0010
,
0100
0001
0010
0100
,
1000
0000
0020
0000
,
0030
2000
0000
0000
,
0000
3000
0010
0100
,
0100
0001
0010
1000
,
0001
0001
0010
0100
,
0001
1000
0100
0001
,
0010
0100
0001
1000
,
0010
0100
0001
0010
,
0000
2000
0000
0000
,
3000
0002
0000
0000
,
0003
0100
0001
0010
,
0100
0010
1000
0002
,
0000
0003
0000
0020
,
0000
0000
0000
0030
,
0001
0010
2000
0000
,
0000
3000
0010
1000
,
0001
0010
0100
0001
,
0010
0000
0010
0100
,
0001
0010
0100
0010
,
1000
0010
1001
1000
,
0100
0010
0001
0010
,
0100
1000
0100
0010
,
0001
0010
0100
1000
,
0100
0010
0001
0000
,
1000
0010
0010
0000
,
1000
0100
0100
0002
,
0003
0100
0100
1000
,
0001
1000
0001
0010
,
0100
0001
0010
1000
,
0010
0100
0001
0010
,
1000
0010
0100
0001
,
0010
1000
0010
0100
,
0001
0010
1000
0010
,
0100
0001
0010
1000
,
0010
1000
0010
0100
,
0001
0010
1000
0010
,
0100
0001
0010
1000
,
0010
0100
0001
0010
,
1000
0010
0100
0001
,
0010
0100
0001
1000
,
0010
0100
0001
0010
,
1000
0010
1000
0010
,
0100
0001
0010
0100
,
0010
0001
0010
1000
,
0010
0100
0001
0010
,
0100
0001
0010
1000
,
0010
0100
0001
0010
,
0100
0001
1000
0010
,
0100
0001
0010
0100
,
0001
0010
0100
0001
,
0010
1000
1000
0010
;
